<?xml version="1.0" standalone="no"?>
<!DOCTYPE svg PUBLIC "-//W3C//DTD SVG 1.1//EN" "http://www.w3.org/Graphics/SVG/1.1/DTD/svg11.dtd" >
<!--
2013-9-30: Created.
-->
<svg>
<metadata>
Created by iconfont
</metadata>
<defs>

<font id="iconfont" horiz-adv-x="1024" >
  <font-face
    font-family="iconfont"
    font-weight="500"
    font-stretch="normal"
    units-per-em="1024"
    ascent="896"
    descent="-128"
  />
    <missing-glyph />
    
    <glyph glyph-name="x" unicode="x" horiz-adv-x="1001"
d="M281 543q-27 -1 -53 -1h-83q-18 0 -36.5 -6t-32.5 -18.5t-23 -32t-9 -45.5v-76h912v41q0 16 -0.5 30t-0.5 18q0 13 -5 29t-17 29.5t-31.5 22.5t-49.5 9h-133v-97h-438v97zM955 310v-52q0 -23 0.5 -52t0.5 -58t-10.5 -47.5t-26 -30t-33 -16t-31.5 -4.5q-14 -1 -29.5 -0.5
t-29.5 0.5h-32l-45 128h-439l-44 -128h-29h-34q-20 0 -45 1q-25 0 -41 9.5t-25.5 23t-13.5 29.5t-4 30v167h911zM163 247q-12 0 -21 -8.5t-9 -21.5t9 -21.5t21 -8.5q13 0 22 8.5t9 21.5t-9 21.5t-22 8.5zM316 123q-8 -26 -14 -48q-5 -19 -10.5 -37t-7.5 -25t-3 -15t1 -14.5
t9.5 -10.5t21.5 -4h37h67h81h80h64h36q23 0 34 12t2 38q-5 13 -9.5 30.5t-9.5 34.5q-5 19 -11 39h-368zM336 498v228q0 11 2.5 23t10 21.5t20.5 15.5t34 6h188q31 0 51.5 -14.5t20.5 -52.5v-227h-327z" />
    

    
    <glyph glyph-name="weibo" unicode="&#58892;" d="M511.897 800c-282.713 0-511.897-229.185-511.897-511.9 0-282.709 229.185-511.894 511.897-511.894s511.894 229.185 511.894 511.894c0 282.715-229.181 511.9-511.894 511.9zM464.433 32.958c-130.831 0-264.564 63.404-264.564 167.69 0 54.521 34.542 117.569 94.030 177.068 79.431 79.409 172.060 115.582 206.896 80.724 15.371-15.349 16.859-41.947 6.98-73.693-5.15-15.993 15.009-7.137 15.009-7.172 64.203 26.88 120.215 28.464 140.687-0.788 10.925-15.588 9.879-37.447-0.189-62.778-4.657-11.67 1.433-13.478 10.314-16.144 36.176-11.215 76.439-38.341 76.439-86.141-0.001-79.115-114.089-178.766-285.601-178.766zM701.286 364.551c4.231 13.072 1.58 27.973-8.284 38.907-9.855 10.913-24.419 15.054-37.851 12.214v0.025c-11.205-2.438-22.247 4.752-24.65 15.947-2.409 11.241 4.749 22.294 15.98 24.688 27.477 5.842 57.245-2.652 77.402-25.015 20.199-22.361 25.602-52.822 16.967-79.543-3.525-10.94-15.244-16.896-26.169-13.399-10.922 3.536-16.895 15.27-13.374 26.181h-0.020zM822.412 325.435c-0.007-0.022-0.007-0.070-0.007-0.093-4.11-12.674-17.731-19.615-30.399-15.513-12.719 4.106-19.668 17.697-15.564 30.402l-0.007 0.010c12.599 39.001 4.609 83.492-24.807 116.109-29.443 32.621-72.857 45.081-112.974 36.562-13.049-2.782-25.881 5.547-28.662 18.583-2.793 13.024 5.524 25.861 18.573 28.654h0.025c56.389 11.99 117.481-5.516 158.901-51.438 41.431-45.873 52.599-108.413 34.922-163.274zM640.537 221.689c-6.768 68.515-96.89 115.706-201.299 105.383-104.387-10.323-183.548-74.239-176.767-142.767 6.782-68.546 96.9-115.737 201.298-105.434 104.411 10.329 183.539 74.251 176.767 142.818zM530.835 165.43c-21.305-48.19-82.587-73.883-134.575-57.116-50.193 16.199-71.442 65.757-49.466 110.402 21.578 43.772 77.728 68.53 127.406 55.606 51.414-13.289 77.649-61.788 56.635-108.892zM424.605 202.142c-16.165 6.777-37.062-0.191-47.037-15.834-10.099-15.709-5.361-34.42 10.693-41.729 16.286-7.436 37.908-0.377 48.009 15.734 9.915 16.269 4.694 34.858-11.662 41.829zM464.449 218.66c-6.203 2.462-13.959-0.518-17.596-6.62-3.534-6.133-1.584-13.117 4.633-15.675 6.324-2.602 14.395 0.402 18.047 6.642 3.485 6.287 1.219 13.349-5.083 15.654z"  horiz-adv-x="1024" />

    
    <glyph glyph-name="home" unicode="&#58941;" d="M826.32704 332.74752l-307.2 223.41632c-7.18848 5.24288-16.91648 5.24288-24.10496 0l-307.2-223.41632c-9.13408-6.63552-11.1616-19.456-4.5056-28.59008 6.656-9.15456 19.43552-11.14112 28.61056-4.52608l40.42752 29.40928 0-280.94464c0-11.32544 9.17504-20.48 20.48-20.48l165.376 0c11.30496 0 20.48 9.15456 20.48 20.48l0 192.36864 96.768 0 0-192.36864c0-11.32544 9.17504-20.48 20.48-20.48l165.376 0c11.30496 0 20.48 9.15456 20.48 20.48L761.79456 329.02016l40.42752-29.40928c3.64544-2.64192 7.86432-3.91168 12.02176-3.91168 6.32832 0 12.57472 2.92864 16.5888 8.43776C837.50912 313.27104 835.46112 326.09152 826.32704 332.74752zM720.83456 68.55552l-124.416 0 0 192.36864c0 11.32544-9.17504 20.48-20.48 20.48l-137.728 0c-11.30496 0-20.48-9.15456-20.48-20.48l0-192.36864-124.416 0L293.31456 358.81856l213.77024 155.46368 213.77024-155.46368L720.85504 68.55552z"  horiz-adv-x="1024" />

    
    <glyph glyph-name="rectangle390" unicode="&#58997;" d="M933.875 216.231l0 415.398c0 89.578-72.64 162.247-162.247 162.247l-519.257 0c-89.578 0-162.247-72.64-162.247-162.247l0-519.257c0-89.578 72.64-162.247 162.247-162.247l519.257 0c79.833 0 146.234 57.694 159.739 133.674-43.01 18.503-229.54 99.03-326.659 145.483-73.909-89.539-151.342-143.264-268.058-143.264-116.716 0-194.602 71.798-185.212 159.831 6.163 57.78 45.78 152.112 217.775 135.887 90.651-8.552 132.162-25.462 206.163-49.822 19.016 35.045 34.979 73.643 46.962 114.726l-327.761 0 0 32.452 162.143 0 0 58.413-197.819 0 0 35.697 197.819 0 0 84.151c0 0 1.864 13.205 16.339 13.205l81.13 0 0-97.356 210.937 0 0-35.697-210.938 0 0-58.413 171.995 0c-15.769-64.437-39.718-123.547-69.793-175.278 50.03-18.048 277.485-87.583 277.485-87.583 0 0 0 0 0 0zM323.779 141.593c-123.318 0-142.788 77.885-136.298 110.337s42.188 74.64 110.743 74.64c78.833 0 149.316-20.114 234.033-61.377-59.424-77.44-132.575-123.6-208.477-123.6z"  horiz-adv-x="1025" />

    
    <glyph glyph-name="sosuo" unicode="&#58915;" d="M981.301223-114.103481l-239.671872 235.890875c62.735654 68.202446 101.316275 158.392474 101.316275 257.613547C842.945626 591.738852 668.056444 763.834431 452.298777 763.834431 236.589276 763.834431 61.724177 591.738852 61.724177 379.425024c0-212.265663 174.889182-384.361242 390.598683-384.361242 93.224459 0 178.718344 32.222766 245.861148 85.806961l240.659266-236.781938c11.728316-11.583819 30.729633-11.583819 42.482032 0C993.029539-144.375541 993.029539-125.639135 981.301223-114.103481zM452.298777 54.162935c-182.523424 0-330.536218 145.628598-330.536218 325.238006 0 179.63349 147.988711 325.286171 330.536218 325.286171 182.547507 0 330.560301-145.628598 330.560301-325.286171C782.859078 199.815616 634.846284 54.162935 452.298777 54.162935z"  horiz-adv-x="1024" />

    
    <glyph glyph-name="ico1" unicode="&#58950;" d="M822.238 609.2l-121.886 124.2L303.784 733.4 181.896 609.2l-0.055 0 0-715.8 640.453 0L822.294 609.2 822.238 609.2zM316.218 716.223l374.347 0 97.733-101.204L218.483 615.019 316.218 716.223zM803.457-87.764 200.678-87.764 200.678 590.363l602.779 0L803.457-87.764zM228.666 561.926l0-188.368 546.268 0L774.934 561.926 228.666 561.926zM756.098 392.395 247.502 392.395 247.502 543.089l508.595 0L756.097 392.395zM410.957 436.416l181.687 0c9.648 0 17.468 7.501 17.468 16.754l0 51.258c0 9.253-7.819 16.754-17.468 16.754L410.957 521.182c-9.648 0-17.468-7.501-17.468-16.754l0-51.258C393.488 443.917 401.309 436.416 410.957 436.416zM412.325 485.592c0 9.252 7.821 16.753 17.469 16.753l144.013 0c9.65 0 17.468-7.501 17.468-16.753l0-13.585c0-9.253-7.817-16.753-17.468-16.753L429.794 455.254c-9.648 0-17.469 7.5-17.469 16.753L412.325 485.592zM228.666 345.212l0-188.369 546.268 0L774.934 345.212 228.666 345.212zM756.098 175.681 247.502 175.681 247.502 326.375l508.595 0L756.097 175.681zM410.957 219.701l181.687 0c9.648 0 17.468 7.503 17.468 16.755l0 51.258c0 9.253-7.819 16.754-17.468 16.754L410.957 304.468c-9.648 0-17.468-7.501-17.468-16.754l0-51.258C393.488 227.204 401.309 219.701 410.957 219.701zM412.325 268.879c0 9.252 7.821 16.752 17.469 16.752l144.013 0c9.65 0 17.468-7.5 17.468-16.752l0-13.586c0-9.253-7.817-16.755-17.468-16.755L429.794 238.538c-9.648 0-17.469 7.502-17.469 16.755L412.325 268.879zM228.666 132.895l0-188.369 546.268 0L774.934 132.895 228.666 132.895zM756.098-36.638 247.502-36.638 247.502 114.057l508.595 0L756.097-36.638zM410.957 7.385l181.687 0c9.648 0 17.468 7.499 17.468 16.752l0 51.259c0 9.253-7.819 16.755-17.468 16.755L410.957 92.151c-9.648 0-17.468-7.502-17.468-16.755l0-51.259C393.488 14.884 401.309 7.385 410.957 7.385zM412.325 56.559c0 9.253 7.821 16.755 17.469 16.755l144.013 0c9.65 0 17.468-7.502 17.468-16.755l0-13.585c0-9.252-7.817-16.752-17.468-16.752L429.794 26.222c-9.648 0-17.469 7.5-17.469 16.752L412.325 56.559z"  horiz-adv-x="1024" />

    
    <glyph glyph-name="qijiaqianbaobaozhang" unicode="&#58998;" d="M513.554914 731.308213c57.935504 0 114.131387-11.343349 167.027108-33.716916 51.101865-21.614274 97.002264-52.5611 136.425136-91.980901 39.423895-39.420825 70.374814-85.319178 91.993181-136.420019 22.376637-52.896744 33.723056-109.09672 33.723056-167.040411 0-57.936527-11.346419-114.131387-33.723056-167.025061-21.618367-51.096748-52.569286-96.992031-91.993181-136.411833-39.422871-39.417755-85.324294-70.363558-136.425136-91.977831-52.894697-22.37152-109.090581-33.715893-167.027108-33.715893-57.936527 0-114.130364 11.343349-167.019944 33.715893-51.096748 21.61325-96.989985 52.55803-136.40774 91.976808-39.416731 39.418778-70.361511 85.313038-91.974761 136.411833-22.37152 52.892651-33.714869 109.087511-33.714869 167.026084 0 57.944713 11.343349 114.145713 33.715893 167.041434 21.61325 51.101865 52.557006 97.000218 91.974761 136.420019 39.416731 39.418778 85.310991 70.366627 136.406716 91.979878C399.42455 719.964864 455.618387 731.308213 513.554914 731.308213M513.554914 751.774337c-248.28683 0-449.583438-201.302749-449.583438-449.624371 0-248.295016 201.296609-449.595718 449.583438-449.595718 248.281713 0 449.635627 201.301725 449.635627 449.595718C963.190541 550.471588 761.836627 751.774337 513.554914 751.774337L513.554914 751.774337zM531.876188 611.38696c-159.933549 0-292.038286-131.529639-314.376037-302.521035 7.024997 25.27464 35.510772 44.237527 69.813019 44.237527 26.069749 0 48.681746-11.086499 61.141522-27.470655 12.403494 16.384156 35.126009 27.470655 61.195757 27.470655 26.01449 0 48.627511-11.086499 61.086264-27.470655 10.646478 13.914918 26.619264 23.957645 47.803749 26.647917l0-244.670465 0-11.277858 0-41.575908c0 0-6.91448-33.397644-43.633776-32.464389 0 0-29.746488 1.838881-39.187511 21.595854 0 0-2.085498 2.304486-2.632967 13.065574l0 0c-0.604774 5.734608-6.531763 10.977006-14.488992 10.260691-6.695492-0.576121-12.184507-5.102205-12.184507-11.444657 0-0.245593 0.220011-0.437975 0.220011-0.657986-0.055259-0.905626-0.220011-1.675152-0.220011-2.579755 0-32.410154 30.679743-58.644655 68.496024-58.644655 37.870516 0 70.471005 26.152637 70.471005 58.56279 0 0.440022-0.055259 0.849344-0.055259 1.289366l0.055259 0L545.379737 352.170197c21.184485-2.689249 37.102013-12.622482 47.693232-26.5374 12.459776 16.384156 35.016515 27.470655 61.08524 27.470655 26.070772 0 48.793286-11.086499 61.249993-27.470655 12.403494 16.384156 35.016515 27.470655 61.08524 27.470655 34.248012 0 62.842257-18.962887 69.866231-44.237527C824.022944 479.857321 691.917184 611.38696 531.876188 611.38696zM765.407965 382.356706c-13.72049-0.576121-42.260499-4.774747-53.568033-18.632359-16.081257 14.379499-37.266765 18.413372-60.812017 18.413372-23.765263 0-46.923706-9.082866-58.231239-22.969131-11.361769 13.884218-39.022759 23.243377-62.621223 23.243377-23.711028 0-47.749514-9.714246-59.055001-23.572882-11.307533 13.857613-34.522258 23.325241-58.232263 23.325241-23.600511 0-52.140521-9.110495-63.446008-22.99676-12.294001 14.350846-27.551496 22.035876-47.475268 24.093744-20.417005 0.876973-32.490995-3.677762-43.193755-6.558369 44.345997 81.666998 122.830513 204.223265 273.158287 205.211778 126.068254 0.576121 225.354538-98.242512 270.962272-203.565279C760.633219 385.017302 783.244192 382.274842 765.407965 382.356706z"  horiz-adv-x="1024" />

    
    <glyph glyph-name="hongqi" unicode="&#58896;" d="M208.196251 748.370821c-27.197432 0-49.450249-28.678156-49.450249-63.73151l0-640.502699c0-35.050284 22.252817-63.730487 49.450249-63.730487 27.193339 0 49.446156 28.674063 49.446156 63.730487L257.642406 684.639311C257.642406 719.689594 235.391636 748.370821 208.196251 748.370821zM239.833809 55.110547c0-28.704762-14.192234-52.18657-31.531134-52.18657-17.34504 0-31.53625 23.481807-31.53625 52.18657L176.766424 679.322212c0 28.701692 14.192234 44.276413 31.53625 44.276413 17.34197 0 31.531134-15.57472 31.531134-44.276413L239.833809 55.110547zM795.167756 727.15359c0 0-180.874487-54.268998-214.794018-46.260603-33.924647 8.012488 2.815115 55.787584-69.9 56.068993-113.966635 0-180.842765-34.377972-180.842765-34.377972s-44.338834-19.581987-44.338834-69.045539l0-223.14522c0-52.650127 35.189454-33.209356 35.189454-33.209356s91.747587 33.209356 189.584869 33.209356c75.586512 0 41.422412-51.147914 70.304206-57.752332 28.881794-6.604418 193.493899 50.912553 235.085156 58.966996l0.004093-0.002047c41.59842 8.055466 43.712571 38.695301 43.712571 61.177338s0 195.60191 0 195.60191C859.172489 728.529937 848.477916 736.96198 795.167756 727.15359zM836.653613 480.425256c-3.00545-41.99137-38.262442-53.702086-38.262442-53.702086-36.395932-7.070023-180.459025-57.560974-205.734688-51.761897-25.276686 5.796006 2.153036 52.109822-63.779605 57.453527-83.370803 6.756891-190.687994-26.89965-190.687994-26.89965s-30.797423-17.065677-30.797423 29.151947L307.391461 621.541227c0 43.420929 38.800701 60.610426 38.800701 60.610426s51.773154 30.1773 151.508669 30.1773c60.261479 3.133364 40.495296-48.940642 70.183456-55.974849 29.68509-7.030114 212.752522 47.365774 212.752522 47.365774 46.65253 8.609075 56.015781 1.208525 56.015781-51.589982C836.653613 652.130919 838.060659 500.109574 836.653613 480.425256z"  horiz-adv-x="1024" />

    
    <glyph glyph-name="qijiaqianbaobaozhang1" unicode="&#58999;" d="M529.075399 748.021873c57.935504 0 114.131387-11.343349 167.027108-33.716916 51.101865-21.614274 97.002264-52.5611 136.425136-91.980901 39.423895-39.420825 70.374814-85.319178 91.993181-136.420019 22.376637-52.896744 33.723056-109.09672 33.723056-167.040411 0-57.935504-11.346419-114.131387-33.723056-167.025061-21.618367-51.096748-52.569286-96.992031-91.993181-136.411833-39.422871-39.418778-85.324294-70.364581-136.425136-91.978854-52.893674-22.370497-109.089557-33.714869-167.027108-33.714869s-114.130364 11.343349-167.019944 33.714869c-51.096748 21.61325-96.989985 52.55803-136.40774 91.977831-39.416731 39.418778-70.361511 85.313038-91.974761 136.411833-22.37152 52.892651-33.714869 109.088534-33.714869 167.026084 0 57.944713 11.343349 114.145713 33.715893 167.041434 21.61325 51.101865 52.557006 97.000218 91.974761 136.420019 39.416731 39.418778 85.310991 70.366627 136.406716 91.979878C414.945035 736.678524 471.138872 748.021873 529.075399 748.021873M529.075399 768.487997c-248.28683 0-449.583438-201.302749-449.583438-449.624371 0-248.295016 201.296609-449.594695 449.583438-449.594695 248.281713 0 449.63665 201.301725 449.63665 449.594695C978.711026 567.185248 777.357112 768.487997 529.075399 768.487997L529.075399 768.487997zM286.984688 306.069229l66.539462 0 0 65.595974-26.426883 0 0 24.068162c-7.236821-13.05841-14.629185-25.327852-22.180162-36.809347-8.181333 12.582573-15.889899 23.278169-23.12365 32.089859 31.459502 49.39192 55.685253 105.235786 72.674183 167.528528l36.809347-9.910721c-6.765077-20.609387-13.685697-40.11258-20.764929-58.516742l93.438089 0 0-33.977859L356.590999 456.137083c-7.867178-17.932418-15.96767-34.766828-24.303522-50.494021l121.281227 0 0-33.977859-63.707974 0 0-65.595974 69.842695 0 0-33.977859-69.842695 0 0-100.988042c20.133549 11.95324 43.2572 27.054169 69.37095 45.302789 1.570775-10.06831 4.088108-22.651906 7.550976-37.752836-31.463596-19.820418-57.260122-36.492122-77.393671-50.0233-11.643178-8.17724-20.764929-15.572674-27.371394-22.179139L336.535221 139.012446c11.325953 10.382465 16.98893 23.279193 16.98893 38.696324l0 94.381577-66.539462 0L286.984688 306.069229zM454.513216 133.350492c44.200688 18.404162 84.313268 41.056068 120.336716 67.954695-14.629185 31.459502-25.327852 69.212338-32.088836 113.258507l-69.842695-8.494465-5.191232 33.033347 70.787206 8.494465c-2.359744 20.292162-4.246721 42.549072-5.662977 66.774823l-62.291718-6.842849-5.191232 33.034371 65.831334 7.078209c-1.416256 33.818223-2.12336 70.941726-2.12336 111.370507l36.809347 0c0.154519-39.013549 0.862647-74.797543 2.12336-107.36017l160.212912 17.697057 3.774977-32.561603-162.337295-18.168802c1.570775-24.225751 3.458775-46.405913 5.662977-66.539462l160.449295 19.584034 3.774977-32.561603-160.212912-19.820418c5.504364-36.808324 13.839193-68.348668 25.010627-94.617961 29.258371 25.324782 55.604412 53.716412 79.045287 85.180008l29.258371-21.708418c-27.528983-36.33658-57.731866-68.585051-90.606601-96.741321 13.367449-20.450774 29.41289-36.019355 48.134277-46.719044 19.820418-13.21293 31.931247-8.648984 36.337603 13.685697 5.345752 24.852014 9.279341 49.078789 11.797697 72.674183 13.21293-5.349845 24.694425-9.282411 34.44858-11.796674-5.980201-37.439704-11.642155-64.807005-16.98893-82.112136-7.550976-25.797549-21.552875-38.851866-41.999556-39.169091-18.249643 0-36.496216 7.079232-54.741765 21.236674-17.460674 13.05841-32.721239 29.416983-45.774533 49.078789-35.551704-26.741038-74.090439-49.233308-115.618251-67.482951C472.287021 109.599556 464.577433 120.452741 454.513216 133.350492zM598.91707 534.945987l21.708418 22.180162c25.796526-18.876929 47.346331-36.182061 64.651462-51.910277l-25.010627-25.955138C638.240681 500.650903 617.794 519.213677 598.91707 534.945987z"  horiz-adv-x="1024" />

    
    <glyph glyph-name="gouwu" unicode="&#58910;" d="M860.431667 17.386364c0.36225 0.430812 0.722454 0.86674 1.059122 1.319042 61.319577 76.591399 98.05013 173.676551 98.05013 279.218306 0 246.822478-200.735837 447.559339-447.555246 447.559339-246.698658 0-447.559339-200.73686-447.559339-447.559339 0-246.819408 200.825888-447.520453 447.559339-447.520453 96.680946 0 186.284707 30.819936 259.537058 83.129302 8.31027 4.912893 13.892405 13.95585 13.892405 24.310685 0 15.591093-12.636808 28.224832-28.224832 28.224832-7.746428 0-14.763239-3.120061-19.86442-8.169053 0 0.00921-0.00307 0.013303-0.00307 0.021489-63.770396-45.011146-141.517107-71.490218-225.338165-71.490218-215.939097 0-391.561977 175.648462-391.561977 391.528208 0 216.002542 175.62288 391.588583 391.561977 391.588583 215.935004 0 391.592676-175.585017 391.592676-391.588583 0.01228-91.391477-31.477922-175.567621-84.175121-242.263649-5.272074-5.109368-8.552793-12.262278-8.552793-20.183691 0-15.522532 12.585643-28.106128 28.109198-28.106128 7.630794 0 14.546298 3.043313 19.611663 7.981788 0.021489-0.076748 0.055259-0.154519 0.081864-0.230244C859.253842 15.89336 859.83815 16.643444 860.431667 17.386364L860.431667 17.386364zM686.142156 290.953973M458.048227 137.572654c-21.935592 0-39.7227-17.621333-39.7227-39.32975 0-21.742187 17.787108-39.343053 39.7227-39.343053 21.935592 0 39.71963 17.600867 39.71963 39.343053C497.767857 119.952344 479.983819 137.572654 458.048227 137.572654L458.048227 137.572654zM647.8879 137.572654c-21.938662 0-39.72577-17.621333-39.72577-39.32975 0-21.742187 17.787108-39.343053 39.72577-39.343053 21.931498 0 39.715537 17.600867 39.715537 39.343053C687.603437 119.952344 669.819398 137.572654 647.8879 137.572654L647.8879 137.572654zM694.527127 209.925518l-276.517801 0-95.187943 278.761911c-2.762927 8.129144-10.460236 12.229532-19.128663 12.229532l-84.116793 0c-11.145851 0-20.183691-7.776104-20.183691-18.816554 0-11.034311 9.03784-18.816554 20.183691-18.816554l69.609381 0 95.187943-278.748608c2.761903-8.129144 10.460236-12.242835 19.128663-12.242835l291.025213 0c11.148921 0 20.186761 7.769964 20.186761 18.819624C714.713888 202.152485 705.672978 209.925518 694.527127 209.925518L694.527127 209.925518zM737.815025 426.829594l-342.326623 29.53978c-11.06501 0.956791-17.214057-6.791683-13.672394-17.197684l59.82248-177.314405c3.545756-10.42135 15.529695-20.346397 26.630521-20.346397l249.89035 0c11.106965 0 21.157879 10.350742 22.339798 21.279652l15.277962 141.725862C756.958014 415.439172 748.882082 425.873826 737.815025 426.829594L737.815025 426.829594zM737.815025 426.829594"  horiz-adv-x="1024" />

    
    <glyph glyph-name="jiatingqingji" unicode="&#58887;" d="M379.771 466.821c35.79 7.705 83.256 11.912 133.485 11.912 50.319 0 97.726-4.208 133.576-11.912 14.616-3.117 26.734-6.701 36.433-10.77C668.097 528.348 597.625 598.3 513.227 598.3c-84.341 0-154.732-69.941-169.891-142.231C353.037 460.13 365.154 463.708 379.771 466.821zM513.256 450.121c-43.554 0-85.46-3.38-118.017-9.474-30.026-5.6-43.907-12.057-48.965-15.611 5.058-3.569 18.939-10.012 48.965-15.612 32.556-6.093 74.463-9.458 118.017-9.458 43.584 0 85.521 3.365 118.077 9.458 30.054 5.601 43.905 12.043 48.935 15.612-5.029 3.554-18.881 10.011-48.935 15.611C598.776 446.741 556.84 450.121 513.256 450.121zM512.844 803.803C231.639 803.803 3.691 578.888 3.691 301.406c0-277.483 227.948-502.426 509.153-502.426 281.177 0 509.154 224.943 509.154 502.426C1021.998 578.888 794.021 803.803 512.844 803.803zM712.618 419.697l0-361.648c0-2.031-0.441-3.918-1.237-5.658-5.204-14.916-26.407-26.204-64.549-34.298-35.851-7.721-83.257-11.986-133.576-11.986-50.229 0-97.695 4.266-133.485 11.986-38.173 8.094-59.436 19.382-64.612 34.298-0.764 1.74-1.234 3.627-1.234 5.658L313.925 419.697c0 0.753 0.059 1.522 0.176 2.248-0.117 1.016-0.176 2.046-0.176 3.091 0 2.582 0.428 5.064 1.256 7.458 2.925 92.685 90.635 189.326 198.046 189.326 107.504 0 195.29-96.7 198.166-189.411 0.809-2.368 1.226-4.822 1.226-7.373 0-1.045-0.089-2.075-0.207-3.091C712.529 421.219 712.618 420.45 712.618 419.697zM650.358 115.069c-19.321-18.776-51.141-19.849-71.903-2.874-0.854 1.451-1.941 2.814-3.295 4.035-34.261 30.7-88.959 29.742-121.927-2.354-9.646-9.343-22.645-14.68-36.555-14.941-13.939-0.233-27.173 4.613-37.203 13.607-6.793 6.064-17.556 5.834-24.114-0.521-6.44-6.297-6.235-16.365 0.529-22.432 16.145-14.509 37.291-22.488 59.642-22.488 0.618 0 1.235 0 1.823 0.059 22.968 0.465 44.525 9.285 60.464 24.75 19.351 18.894 51.081 19.88 71.934 2.846 0.852-1.392 1.91-2.756 3.264-3.975 16.646-14.973 38.231-22.373 59.67-22.373 22.673 0 45.291 8.211 62.227 24.665 6.503 6.296 6.294 16.427-0.498 22.431C667.621 121.598 656.859 121.424 650.358 115.069L650.358 115.069zM411.854 159.03c22.734 0 45.349 8.27 62.23 24.666l0 0 0.03 0c19.321 18.892 51.082 19.904 71.874 2.931 0.883-1.452 1.997-2.873 3.232-4.035 16.794-14.914 38.264-22.371 59.762-22.371 22.675 0 45.376 8.184 62.227 24.665 6.531 6.411 6.323 16.422-0.499 22.488-6.735 6.122-17.528 5.889-24.026-0.494-19.381-18.746-51.143-19.849-71.963-2.814-0.824 1.45-1.912 2.757-3.237 3.976-34.32 30.759-88.988 29.742-121.896-2.292l0 0c-19.968-19.354-53.112-20.022-73.875-1.363-6.764 6.092-17.468 5.861-23.997-0.436-6.529-6.356-6.323-16.424 0.47-22.431C368.859 166.46 390.387 159.03 411.854 159.03L411.854 159.03zM411.854 159.03"  horiz-adv-x="1024" />

    
    <glyph glyph-name="shafa" unicode="&#59072;" d="M640.271432 293.434467c0 2.322905-3.752464 5.182023-11.078313 8.934486-7.147794 3.574409-17.153682 7.147794-29.662577 10.722202-12.685927 3.39533-27.337625 6.432503-43.955094 9.111518-16.796548 2.501984-34.664497 3.752464-53.963029 3.752464-19.298532 0-37.166481-1.25048-53.963029-3.752464-16.617469-2.680039-31.269168-5.717212-43.955094-9.111518-12.507872-3.573385-22.514783-7.147794-29.662577-10.722202-7.325849-3.751441-10.899234-6.611581-10.899234-8.934486-4.824889 0-8.755408-1.607614-12.150738-4.64581-3.39533-3.216251-5.003967-7.14677-5.003967-11.792581 0-4.466732 1.608637-8.220219 5.003967-11.43647 3.39533-3.037173 7.325849-4.64581 12.150738-4.64581 12.865006 5.897314 26.802436 11.257391 41.812291 16.08228 12.506848 3.930519 26.802436 7.682983 43.062771 10.899234 16.08228 3.39533 32.69975 5.182023 50.031487 5.539156l1.25048 0c17.689894-0.357134 34.843576-2.143826 51.640124-5.539156 16.617469-3.216251 31.627325-6.968715 45.028543-10.899234 15.7231-4.824889 30.375821-10.184967 44.313252-16.08228 5.002944 0 9.29162 1.608637 12.507872 4.64581 3.39533 3.216251 5.002944 6.968715 5.002944 11.43647 0 4.64581-1.607614 8.576329-5.002944 11.792581C649.563052 291.826853 645.273353 293.434467 640.271432 293.434467zM510.546905 748.184579c-246.762103 0-446.708971-199.946868-446.708971-446.708971S263.783779-145.234387 510.546905-145.234387 957.255877 54.712481 957.255877 301.474584 757.309008 748.184579 510.546905 748.184579zM790.543947 298.437411c-3.930519-7.682983-8.755408-15.188934-14.473643-22.335704l-17.331737-22.156626c-5.897314-7.505951-10.722202-16.439414-14.116509-26.802436-1.249457-2.859118-2.322905-7.505951-3.39533-13.93743-0.893346-6.432503-1.965771-14.115486-2.858094-23.049972l-3.037173-28.946262c-0.893346-10.364045-1.787716-20.907169-2.501984-31.092136-1.965771-24.300452-3.931542-51.102888-5.897314-80.050174 0-3.39533-1.25048-6.074346-3.573385-8.397251-1.965771-2.143826-5.360078-4.110621-10.005888-5.718235-4.823865-1.608637-11.613502-2.501984-20.727067-2.501984-9.470699 0-17.33276 0.893346-23.765263 2.501984-6.611581 1.607614-11.971659 3.573385-16.259312 5.718235-4.824889 2.322905-8.934486 5.002944-12.328793 8.397251l0 15.903202L363.132484 65.969872l0-15.903202c-3.573385-3.39533-7.682983-6.074346-12.507872-8.397251-4.288676-2.143826-9.648754-4.110621-16.259312-5.718235-6.432503-1.608637-14.116509-2.501984-23.229051-2.501984-9.470699 0-16.439414 0.893346-21.263279 2.501984-4.64581 1.607614-8.04114 3.573385-10.005888 5.718235-2.322905 2.322905-3.573385 5.002944-3.573385 8.397251l-5.183046 80.050174c-0.893346 10.184967-1.786693 20.72809-2.680039 31.092136l-3.037173 28.946262c-0.89437 8.934486-1.966795 16.617469-2.859118 23.049972-1.072425 6.432503-2.143826 11.078313-3.216251 13.93743-3.931542 10.363022-8.934486 19.297508-14.830777 26.802436l-17.331737 22.156626c-5.718235 7.14677-10.543124 14.651698-14.473643 22.335704-3.931542 7.682983-5.897314 16.975627-5.897314 27.516704 0 21.084201 8.04114 37.166481 24.121374 48.423873 16.260335 11.257391 37.702694 16.796548 64.862263 16.796548 9.470699 0 17.511839-1.608637 24.301476-4.64581 6.611581-3.216251 12.328793-7.147794 17.331737-12.150738 4.824889-5.003967 8.934486-10.721179 12.150738-17.153682 3.037173-6.432503 5.539156-13.222139 7.682983-20.190855-2.143826 11.793604-5.180999 23.050995-9.290597 33.771151-4.110621 10.5421-10.364045 19.298532-19.119453 25.90909-4.288676 3.216251-9.29162 6.432503-15.009855 9.290597-5.718235 3.038196-11.792581 5.718235-18.226107 8.398274-6.611581 2.501984-13.043061 5.002944-19.475564 7.14677-6.611581 2.14485-12.328793 3.931542-17.510816 5.003967l0 5.003967 0.357134 17.86795c0.179079 8.219195 2.143826 17.510816 5.897314 27.516704 3.752464 10.184967 10.184967 20.727067 19.119453 31.80538 9.112542 11.078313 22.692838 21.085224 40.738843 30.197766 18.047028 8.934486 41.455157 16.260335 69.866231 21.978571 28.589129 5.718235 64.146972 8.576329 107.031689 8.576329 42.526559 0 77.906347-2.858094 106.495476-8.576329 28.41005-5.718235 51.639101-13.045107 69.865207-21.978571 18.047028-9.111518 31.627325-19.119453 40.917922-30.197766 9.29162-11.078313 15.724123-21.620413 19.476587-31.80538 3.752464-10.005888 5.718235-19.298532 5.897314-27.516704l0.357134-17.86795 0-5.003967c-5.180999-1.072425-10.899234-2.681062-17.510816-4.64581-6.432503-2.143826-12.865006-4.288676-19.475564-6.789637-6.433526-2.322905-12.68695-5.002944-18.584264-8.219195-5.897314-3.038196-10.720156-6.433526-14.651698-10.184967-6.789637-6.254447-12.150738-14.294564-16.617469-24.301476 5.183046 5.183046 11.614525 9.649777 19.476587 13.223163 7.862062 3.751441 17.86795 5.539156 30.197766 5.539156 27.516704 0 49.13814-5.539156 65.040319-16.796548 15.903202-11.257391 23.944342-27.338648 23.944342-48.423873C796.440238 315.413038 794.47549 306.121418 790.543947 298.437411z"  horiz-adv-x="1024" />

    
    <glyph glyph-name="shounaqingjijinghua" unicode="&#59059;" d="M341.303828 393.927229l370.84105 0c0.490164 2.198062 1.151219 3.847631 1.151219 5.386684 0.057305 37.034475 0.330528 74.068949-0.221034 111.103424-0.052189 3.957125-3.846608 9.012258-7.361665 11.429307-25.715685 17.692964-51.650357 35.056424-77.802994 52.089355-4.619204 2.966565-10.659781 5.055133-16.047488 5.164626-56.262398 0.330528-112.419396 0.330528-168.687934 0-5.382591-0.10847-11.429307-2.087545-16.043395-4.944616-19.999496-12.748349-38.737256-27.804253-59.507302-39.013549-20.166295-10.989285-28.737508-24.506137-26.978445-48.244794C343.062891 456.458401 341.303828 425.57809 341.303828 393.927229zM465.593576 475.908382c0.328481 3.957125 7.801686 10.441816 12.19781 10.55131 32.80208 0.87902 65.661466 0.440022 98.524944 0.440022 8.625448 0 13.292748-4.285606 13.349029-12.857842 0.222057-16.155958 0.110517-32.30987 0.110517-49.673329l-30.552853 0c-0.546446 2.52859-1.096984 4.50664-1.263783 6.483668-1.479701 23.735587-1.479701 23.735587-24.666796 23.735587l-2.532683 0c-30.711466 0-30.711466 0-35.601846-29.889751l-30.113855 0C465.04406 442.063553 464.220299 459.096485 465.593576 475.908382zM699.781292 206.228313c-114.839515-0.327458-229.680053-0.222057-344.519568-0.222057l-13.132088 0 0-122.971729 371.335307 0c0 36.926004-0.387833 73.079412 0.216941 109.236913C713.848683 203.042761 710.989565 206.339854 699.781292 206.228313zM578.347592 112.489372c-19.123546-0.440022-19.340487-0.440022-20.439518 18.352997-0.549515 9.559727-5.330402 13.299911-14.289448 13.187347-11.207249 0-22.527063 0-33.736359 0-8.515954-0.110517-12.750395-4.285606-13.299911-12.966313-1.208525-19.012006-1.426489-19.012006-20.273742-18.571984-3.243881 0.110517-6.486738 0.550539-11.374048 1.095961 0 17.254989-0.661056 34.175357 0.546446 50.992371 0.277316 3.740184 7.255241 9.999748 11.211343 10.110265 33.738405 0.77055 67.475787 0.77055 101.214193-0.10847 4.067642-0.11154 10.933003-7.03523 11.317767-11.207249 1.318018-16.047488 0.551562-32.308847 0.551562-49.78487C584.830237 113.039911 581.640592 112.599889 578.347592 112.489372zM355.920734 237.439152c114.507964 0.438998 228.90848 0.217964 343.420537 0.217964l13.132088 0L712.473359 360.850903 342.073354 360.850903c-0.220011-4.725628-0.549515-8.792247-0.549515-12.857842-0.110517-32.089859 0.440022-64.066131-0.330528-96.158037C340.863806 240.187753 344.601944 237.439152 355.920734 237.439152zM465.704093 321.068851c0.327458 3.846608 8.352225 9.890254 12.966313 9.999748 32.362059 0.87902 64.782446 0.549515 97.199763 0.330528 7.968485 0 13.738909-3.628644 13.793144-12.529361 0.222057-16.152888 0.110517-32.200376 0.110517-49.673329l-31.980365 0c0 5.823636-0.10847 11.100826 0.056282 16.266475 0.217964 9.341762-4.179183 13.845333-13.57211 13.735839-10.770298-0.220011-21.595854-0.329505-32.41834 0-11.322883 0.442068-15.936971-4.835122-15.223726-15.821337 0.277316-4.399193 0.055259-8.905834 0.055259-14.07046l-31.650861 0C465.04406 286.670413 464.274534 303.925403 465.704093 321.068851z"  horiz-adv-x="1024" />

    
    <glyph glyph-name="sousuo" unicode="&#58898;" d="M445.291181-67.264595c-115.564016 0-224.203318 45.12064-305.926598 127.061884-168.70533 169.128979-168.70533 444.309318 0 613.4516C221.087862 755.17069 329.727165 800.29747 445.291181 800.29747c115.562992 0 224.231971-45.127803 305.925574-127.048581 168.704306-169.142282 168.704306-444.322621 0-613.4516C669.522128-22.143954 560.854173-67.264595 445.291181-67.264595zM445.291181 746.130803c-101.129258 0-196.22408-39.501666-267.722484-111.179149-147.621129-148.008962-147.621129-388.851239 0-536.861224 71.498404-71.685669 166.593226-111.186312 267.722484-111.186312 101.142561 0 196.223057 39.501666 267.722484 111.186312 147.633409 148.009985 147.633409 388.852262 0 536.861224C641.514237 706.629137 546.433742 746.130803 445.291181 746.130803zM985.847563-202.509858c-6.92369 0-13.83203 2.636037-19.102057 7.922437l-135.096884 135.446855c-10.555403 10.574846-10.555403 27.719318 0 38.291095 10.5421 10.590196 27.64871 10.590196 38.205137 0l135.080511-135.416156c10.558473-10.602476 10.558473-27.745924 0-38.321794C999.665267-199.872798 992.756927-202.509858 985.847563-202.509858z"  horiz-adv-x="1024" />

    
    <glyph glyph-name="shafa1" unicode="&#58927;" d="M223.568 349.762c0 52.781 42.931 95.721 95.701 95.721 52.773 0 95.708-42.94 95.708-95.721v-32h191.714v32c0 52.781 42.935 95.721 95.708 95.721 52.771 0 95.702-42.94 95.702-95.721v-32h191.708v223.53c0 88.084-71.645 159.746-159.708 159.746h-43.403c-5.422 6.91-13.204 13.875-24.241 20.397-15.522 9.174-36.806 17.178-63.257 23.791-50.709 12.678-117.606 19.66-188.368 19.66-70.76 0-137.655-6.982-188.364-19.659-26.451-6.613-47.733-14.617-63.256-23.791-11.037-6.522-18.82-13.488-24.241-20.397h-43.403c-88.063 0-159.708-71.662-159.708-159.746v-223.53h191.708v31.999zM162.788 381.762h-66.928v159.53c0 52.794 42.935 95.746 95.708 95.746h95.854v26.472c6.354 4.889 25.644 14.825 67.303 23.431 43.531 8.993 98.97 13.945 156.107 13.945 57.139 0 112.58-4.952 156.111-13.945 41.66-8.605 60.95-18.542 67.304-23.431v-26.472h95.854c52.773 0 95.708-42.952 95.708-95.746v-159.53h-66.928c-14.858 72.79-79.376 127.721-156.482 127.721-77.109 0-141.63-54.931-156.488-127.721h-70.154c-14.858 72.79-79.379 127.721-156.488 127.721-77.106-0-141.623-54.931-156.481-127.721zM960.139 286.902h-893.948c-35.267 0-63.86-28.602-63.86-63.944v-287.24c0-19.43 0-32.551 0-32.551v-31.201c0-17.656 14.297-31.965 31.927-31.965 17.636 0 31.933 14.31 31.933 31.965v31.201h893.949v-31.201c0-17.656 14.297-31.965 31.933-31.965 17.63 0 31.927 14.31 31.927 31.965v31.201c0 0 0 13.121 0 32.551v287.24c0 35.342-28.594 63.944-63.861 63.944zM193.898-32.342h-127.707v255.403h127.708v-255.403zM385.46-32.342h-127.708v255.403h127.708l-0-255.403zM577.022-32.342h-127.714v255.403h127.714l0-255.403zM768.578-32.342h-127.708v255.403h127.708v-255.403zM960.139-32.342h-127.707v255.403h127.708v-255.403z"  horiz-adv-x="1024" />

    
    <glyph glyph-name="iconfuben04" unicode="&#58969;" d="M462.054983 492.549388c-75.077929 0-135.958508-60.881602-135.958508-135.960555s60.880579-135.961578 135.958508-135.961578c75.080999 0 135.962601 60.881602 135.962601 135.961578S537.135982 492.549388 462.054983 492.549388zM510.185166 812c-281.785781 0-510.164189-228.405013-510.164189-510.164189s228.378407-510.165212 510.164189-510.165212c281.786805 0 510.165212 228.405013 510.165212 510.165212S791.971971 812 510.185166 812zM712.057897 27.349273l-140.046616 139.996474c-32.435737-18.910699-69.701478-30.516014-109.956298-30.516014-121.365138 0-219.758076 98.398054-219.758076 219.759099 0 121.363092 98.392938 219.759099 219.758076 219.759099 121.363092 0 219.762169-98.396008 219.762169-219.759099 0-47.230698-15.19405-90.724281-40.554648-126.543068l136.759757-136.786363L712.057897 27.349273z"  horiz-adv-x="1024" />

    
    <glyph glyph-name="iconfont5" unicode="&#58943;" d="M266.8 279.5 324 325.9l114.4-84.5c0 0 158 163.6 310.6 239.9l21.8-24.6c0 0-190.7-158.1-288.7-368.1L266.8 279.5zM202 603l0-369.8c0-60.1 0-218.8 314.1-343.6 314.1 124.8 314.1 283.5 314.1 343.6l0 369.8c-173.9 0.7-274 62.6-314.1 94.6C476 665.6 375.9 603.7 202 603zM516.1-170.2l-10 3.9C183.6-41.6 146.4 121.4 146.4 233.2l0 426.9 28.8-1c224.1-7.6 319.5 93.6 320.4 94.6l20.5 22.5 20.5-22.5c0.8-0.8 91.2-95 296.5-95l0 0c7.8 0 15.8 0.1 23.9 0.4l28.8 1 0-426.9c0-111.8-37.3-274.8-359.7-399.5L516.1-170.2z"  horiz-adv-x="1024" />

    
    <glyph glyph-name="dizhi" unicode="&#58913;" d="M1024 33.125209C1024-72.656372 766.428279-128 512-128 257.571721-128 0-72.656372 0 33.125209 0 126.999814 198.394047 166.12614 283.719442 178.604651 296.364651 180.390698 308.152558 171.460465 309.962419 158.553302 311.796093 145.622326 302.98493 133.643907 290.292093 131.786419 112.616186 105.829209 46.413395 57.486884 46.413395 33.125209 46.413395-13.288186 227.780465-80.729302 512-80.729302 796.219535-80.729302 977.586605-13.288186 977.586605 33.125209 977.586605 57.677395 910.740837 106.281674 731.350326 132.119814 718.657488 133.953488 709.822512 145.931907 711.608558 158.83907 713.418419 171.770047 725.206326 180.676465 737.827721 178.938047 823.867535 166.530977 1024 127.523721 1024 33.125209L1024 33.125209ZM413.81507 594.753488C413.81507 649.906605 457.84707 694.772093 511.976186 694.772093 566.129116 694.772093 610.18493 649.906605 610.18493 594.753488 610.18493 539.600372 566.129116 494.71107 511.976186 494.71107 457.84707 494.71107 413.81507 539.600372 413.81507 594.753488L413.81507 594.753488ZM656.598326 594.753488C656.598326 675.982884 591.729116 742.066605 511.976186 742.066605 432.270884 742.066605 367.425488 675.982884 367.425488 594.753488 367.425488 513.524093 432.270884 447.440372 511.976186 447.440372 591.729116 447.440372 656.598326 513.524093 656.598326 594.753488L656.598326 594.753488ZM512 848.729302C654.764651 848.729302 770.929116 730.373953 770.929116 584.894512 770.929116 383.333209 570.391814 156.862512 511.809488 95.017674 453.060465 155.743256 253.070884 377.713116 253.070884 584.894512 253.070884 730.373953 369.211535 848.729302 512 848.729302L512 848.729302ZM496.139907 44.365395 512.190512 29.100651 528.050605 44.555907C539.862326 56.08186 817.342512 329.799442 817.342512 584.894512 817.342512 756.450233 680.364651 896 512 896 343.635349 896 206.657488 756.450233 206.657488 584.894512 206.657488 322.917209 484.328186 55.605581 496.139907 44.341581L496.139907 44.365395Z"  horiz-adv-x="1024" />

    
    <glyph glyph-name="men" unicode="&#58883;" d="M152.025994 271.196201c0-4.222944-3.583104-7.67808-7.934016-7.67808l0 0c-4.350912 0-7.934016 3.455136-7.934016 7.67808L136.157961 375.810047c0 4.286928 3.51912 7.742064 7.934016 7.742064l0 0c4.350912 0 7.934016-3.455136 7.934016-7.742064L152.025994 271.196201zM900.31892 280.217946c0-4.222944-3.583104-7.67808-7.934016-7.67808l0 0c-4.286928 0-7.934016 3.455136-7.934016 7.67808L884.450887 384.831792c0 4.286928 3.647088 7.67808 7.934016 7.67808l0 0c4.350912 0 7.934016-3.391152 7.934016-7.67808L900.31892 280.217946zM552.821795 805.846538l0-843.309173 306.611347 0L859.433142 805.846538 552.821795 805.846538zM828.08098-8.157961 583.662084-8.157961 583.662084 777.757561l244.418895 0L828.08098-8.157961zM179.795051 805.846538l0-843.309173 306.611347 0L486.406398 805.846538 179.795051 805.846538zM455.054236-8.157961 210.635341-8.157961 210.635341 777.757561 455.054236 777.757561 455.054236-8.157961zM70.062484 896l0-1023.744064 895.776056 0 0 1023.744064L70.062484 896zM930.83929-94.024494 104.101975-95.368158 103.654086 863.176206l827.185204 0L930.83929-94.024494z"  horiz-adv-x="1024" />

    
    <glyph glyph-name="dingdan" unicode="&#59025;" d="M271.980414 127.787483l255.787482 0 0 51.157751L271.980414 178.945234 271.980414 127.787483zM271.980414 306.838975l460.418487 0 0 51.157751L271.980414 357.996726 271.980414 306.838975zM578.925647 895.151202 425.452394 895.151202l0-51.157751 153.473254 0L578.925647 895.151202zM271.980414 485.890467l460.418487 0 0 51.157751L271.980414 537.048218 271.980414 485.890467zM885.87088 895.151202 732.397627 895.151202c0 0-76.73599 4.608313-76.73599-51.157751 0-35.124849-21.540709-47.389051-41.797156-51.157751L398.315967 792.8357c-22.079641 2.740526-49.599563 13.67205-49.599563 51.157751 0 62.768355-76.73599 51.160299-76.73599 51.160299l-0.002548-0.002548L118.507161 895.151202C90.2521 895.151202 67.349409 872.248512 67.349409 843.993451l0-920.836973C67.349409-105.096035 90.2521-127.999999 118.507161-127.999999l511.576238 0 51.157751 0 25.578239 0 230.209243 230.209243 0 25.578239 0 51.157751L937.028631 843.993451C937.028631 872.248512 914.124667 895.151202 885.87088 895.151202zM681.239876-76.842248 681.239876 102.209244c0 14.126893 11.451345 25.578239 25.578239 25.578239l179.051492 0L681.239876-76.842248zM885.87088 178.945234 681.239876 178.945234c-28.253787 0-51.157751-22.902691-51.157751-51.157751l0-204.629731L144.085399-76.842248c-14.126893 0-25.578239 11.451345-25.578239 25.578239L118.507161 818.415213c0 14.126893 11.451345 25.578239 25.578239 25.578239l122.678971 0c16.169228-5.519273 30.470669-19.396449 30.794283-51.157751 0.568235-55.912582 76.73599-51.157751 76.73599-51.157751l255.787482 0c0 0 76.73599-0.226785 76.73599 58.570293 0 29.144362 19.128894 40.089901 38.285817 43.745209l115.186162 0c14.126893 0 25.578239-11.451345 25.578239-25.578239L885.868332 178.945234z"  horiz-adv-x="1024" />

    
    <glyph glyph-name="rongyu" unicode="&#58884;" d="M512 896C229.680405 896 0 666.319595 0 384s229.680405-512 512-512 512 229.680405 512 512S794.319595 896 512 896zM512-111.212788c-273.061676 0-495.212788 222.152109-495.212788 495.212788S238.938324 879.212788 512 879.212788 1007.212788 657.061676 1007.212788 384 785.061676-111.212788 512-111.212788zM793.020133 512.059883l-75.912733 0c0.94216 12.01154 1.482105 24.204725 1.482105 36.590534 0 15.28315-0.758519 30.753934-2.253598 45.983189-0.422175 4.299602-4.033123 7.574207-8.352686 7.574207L316.020772 602.207813c-4.315571 0-7.930511-3.274604-8.352686-7.569216-1.496078-15.192327-2.254596-30.664109-2.254596-45.988179 0-12.385809 0.539945-24.578994 1.482105-36.590534l-75.912733 0c-4.340522 0-7.963446-3.30754-8.360671-7.631096-0.434152-4.782659-0.655719-9.590269-0.655719-14.287096 0-76.709177 55.791033-139.114292 124.365099-139.114292 2.025045 0 4.130932 0.082838 6.30768 0.217575 36.255189-66.019057 90.289653-109.148819 150.967142-112.815657l0-106.254472-85.676663 0c-4.634947 0-8.393606-3.758659-8.393606-8.393606 0-4.634947 3.758659-8.393606 8.393606-8.393606l188.143532 0c4.634947 0 8.393606 3.758659 8.393606 8.393606 0 4.634947-3.758659 8.393606-8.393606 8.393606L520.393606 132.174846 520.393606 238.429318c60.678487 3.666838 114.713949 46.7966 150.970136 112.815657 2.176749-0.134737 4.283634-0.217575 6.308678-0.217575 68.574066 0 124.361107 62.406113 124.361107 139.114292 0 4.729762-0.221567 9.532382-0.651727 14.287096C800.983579 508.753341 797.360655 512.059883 793.020133 512.059883zM343.934253 367.843556c-58.217294 1.455158-105.180569 55.758097-105.180569 122.299135 0 1.696686 0.032936 3.410339 0.098807 5.130979l69.606051 0c0.180647-1.565942 0.432156-3.106932 0.627774-4.667883 0.338339-2.681762 0.692647-5.353544 1.076897-8.010355 0.416187-2.889357 0.858324-5.765739 1.328405-8.633138 0.364288-2.210682 0.75253-4.404398 1.148756-6.597115 0.578869-3.218713 1.17271-6.427446 1.820444-9.614222 0.310394-1.522027 0.648733-3.023096 0.974097-4.53614C321.955181 422.821177 331.511517 393.955556 343.934253 367.843556zM512 254.896156c-59.272234 0-112.267727 42.292398-147.099696 108.376327-0.092819 0.220569-0.139727 0.454113-0.252507 0.668694-15.906932 30.301817-27.685926 65.038971-34.740148 102.020741-0.103797 0.546932-0.200608 1.096858-0.302409 1.644788-0.998051 5.352546-1.888312 10.754994-2.686752 16.193372-0.120764 0.825388-0.253505 1.644788-0.369279 2.47317-0.849341 6.028226-1.593887 12.09837-2.192717 18.213427-0.000998 0.011977-0.008982 0.020959-0.009981 0.031938-1.40825 14.398877-2.145809 29.134097-2.145809 44.131805 0 12.238097 0.500023 24.574004 1.492086 36.770183l376.614425 0c0.996055-12.225123 1.496078-24.561029 1.496078-36.770183 0-14.990721-0.737559-29.718955-2.144811-44.111844-0.001996-0.017965-0.012975-0.033934-0.014971-0.051899-0.602823-6.150986-1.349365-12.256062-2.204694-18.320218-0.101801-0.726581-0.218573-1.444179-0.324366-2.168764-0.814409-5.566129-1.724632-11.094331-2.748632-16.570635-0.083836-0.447127-0.161684-0.89625-0.246519-1.34138-7.049232-37.020694-18.838207-71.799766-34.762105-102.143501-0.111782-0.213583-0.15869-0.445131-0.251509-0.664702C624.272717 297.189552 571.275228 254.896156 512 254.896156zM680.069739 367.843556c12.414752 26.101021 21.967096 54.94768 28.484366 85.318363 0.331353 1.536998 0.67568 3.064016 0.991064 4.610994 0.645739 3.176795 1.237583 6.37455 1.814456 9.583283 0.397224 2.195712 0.785466 4.394417 1.150752 6.609092 0.472078 2.87239 0.913216 5.751766 1.330402 8.644117 0.382253 2.64683 0.736561 5.307634 1.073903 7.979415 0.196616 1.565942 0.449123 3.11292 0.62977 4.68485l69.606051 0c0.061879-1.717645 0.093817-3.4303 0.093817-5.130979C785.246316 423.601653 738.283041 369.297715 680.069739 367.843556z"  horiz-adv-x="1024" />

    
    <glyph glyph-name="loutijian" unicode="&#58928;" d="M512.511499 894.977023C230.024572 894.977023 1.022977 665.975428 1.022977 383.488501s229.001595-511.488522 511.488522-511.488522 511.488522 229.001595 511.488522 511.488522S794.998425 894.977023 512.511499 894.977023zM512.511499-76.851168C258.27306-76.851168 52.171829 129.250063 52.171829 383.488501S258.27306 843.828171 512.511499 843.828171s460.33967-206.101231 460.33967-460.33967S766.749937-76.851168 512.511499-76.851168zM834.144688 637.861973 571.290737 637.861973 571.290737 429.093841 362.522605 429.093841 362.522605 220.324686 189.855332 220.324686 189.855332 129.11503 453.732261 129.11503 453.732261 337.884185 662.500393 337.884185 662.500393 546.652317 834.144688 546.652317Z"  horiz-adv-x="1025" />

    
    <glyph glyph-name="jiaju" unicode="&#58933;" d="M836.266667 776.533333 174.08 776.533333C150.186667 776.533333 136.533333 757.76 136.533333 733.866667l0-686.08c0-23.893333 13.653333-39.253333 37.546667-39.253333L238.933333 8.533333l0-34.133333 51.2 0 0 34.133333 426.666667 0 0-34.133333 51.2 0 0 34.133333 68.266667 0c22.186667 0 34.133333 15.36 34.133333 39.253333L870.4 733.866667C870.4 757.76 860.16 776.533333 836.266667 776.533333zM836.266667 59.733333c0-10.24-6.826667-17.066667-17.066667-17.066667L187.733333 42.666667c-10.24 0-17.066667 6.826667-17.066667 17.066667L170.666667 247.466667l665.6 0L836.266667 59.733333zM836.266667 281.6 170.666667 281.6 170.666667 503.466667l665.6 0L836.266667 281.6zM836.266667 537.6 170.666667 537.6 170.666667 725.333333c0 10.24 6.826667 17.066667 17.066667 17.066667l631.466667 0c10.24 0 17.066667-6.826667 17.066667-17.066667L836.266667 537.6zM768 657.066667l-85.333333 0c-10.24 0-17.066667-6.826667-17.066667-17.066667s6.826667-17.066667 17.066667-17.066667l85.333333 0c10.24 0 17.066667 6.826667 17.066667 17.066667S778.24 657.066667 768 657.066667zM682.666667 384l85.333333 0c10.24 0 17.066667 6.826667 17.066667 17.066667s-6.826667 17.066667-17.066667 17.066667l-85.333333 0c-10.24 0-17.066667-6.826667-17.066667-17.066667S672.426667 384 682.666667 384zM682.666667 128l85.333333 0c10.24 0 17.066667 6.826667 17.066667 17.066667s-6.826667 17.066667-17.066667 17.066667l-85.333333 0c-10.24 0-17.066667-6.826667-17.066667-17.066667S672.426667 128 682.666667 128z"  horiz-adv-x="1024" />

    
    <glyph glyph-name="jiajubaoyang" unicode="&#58899;" d="M154.203136 486.227968l255.56992 0 0 102.227968-255.56992 0L154.203136 486.227968zM154.203136-75.324416c0-51.265536 51.113984-51.815424 51.113984-51.815424l153.341952 0c0 0 51.113984-0.295936 51.113984 49.719296 0 141.760512 0 538.090496 0 538.090496l-255.56992 0C154.203136 460.670976 154.203136 68.332544 154.203136-75.324416zM26.4192 767.353856c0-153.341952 127.78496-153.341952 127.78496-153.341952L460.88704 614.011904c0-103.123968-0.198656-153.341952 102.226944-153.341952-31.446016 0-25.555968 153.341952-25.555968 153.341952l127.783936 0c0 0 0 30.649344 0 51.113984-230.60992 0-258.613248 230.012928-511.138816 230.012928C126.8992 895.138816 26.4192 890.94656 26.4192 767.353856zM716.455936 665.125888l0-51.113984 281.125888 0 0 51.113984L716.455936 665.125888zM716.455936 544.233472l243.441664-140.563456 25.558016 44.222464L742.013952 588.454912 716.455936 544.233472zM985.455616 831.246336 959.8976 875.574272 716.455936 735.010816l25.558016-44.326912L985.455616 831.246336z"  horiz-adv-x="1024" />

    
    <glyph glyph-name="icon" unicode="&#58904;" d="M1001.37 236.667c0 56.422-27.705 109.227-78.010 148.688-37.852 29.691-85.175 49.102-136.492 56.482 0.388 5.687 0.591 11.39 0.591 17.060 0 42.048-10.473 82.793-31.125 121.103-19.777 36.685-48.005 69.564-83.901 97.724-73.069 57.322-170.019 88.89-272.99 88.89-102.935 0-199.867-31.568-272.937-88.89-35.897-28.16-64.127-61.038-83.907-97.723-20.657-38.311-31.132-79.056-31.132-121.103 0-77.455 35.945-150.82 101.456-207.6l-34.298-122.050 207.005 35.39c36.858-8.929 75.131-13.454 113.812-13.454 32.707 0 65.099 3.229 96.476 9.598 13.2-27.067 33.554-51.823 60.302-72.801 49.193-38.587 114.396-59.837 183.596-59.837 22.963 0 45.692 2.364 67.628 7.033 63.295-17.957 143.644-41.204 144.465-41.441l26.677-7.721-33.825 120.974c36.581 36.731 56.609 82.443 56.609 129.678zM399.444 182.124c-37.271 0-74.111 4.48-109.497 13.315l-3.152 0.787-165.139-28.233 26.494 94.279-7.838 6.412c-63.132 51.642-97.9 119.194-97.9 190.212 0 152.614 160.164 276.774 357.033 276.774 196.892 0 357.075-124.16 357.075-276.774 0-4.688-0.154-9.401-0.458-14.103-0.307 0.015-0.614 0.019-0.922 0.034-1.98 0.091-3.966 0.162-5.954 0.219-0.615 0.017-1.232 0.039-1.849 0.053-2.501 0.055-5.008 0.092-7.521 0.092-69.201 0-134.403-21.251-183.596-59.837-50.299-39.454-77.999-92.259-77.999-148.688 0-1.89 0.036-3.777 0.098-5.659 0.015-0.451 0.044-0.899 0.062-1.35 0.060-1.473 0.133-2.944 0.23-4.412 0.028-0.404 0.063-0.807 0.093-1.213 0.115-1.571 0.251-3.138 0.411-4.702 0.026-0.245 0.052-0.49 0.080-0.736 1.026-9.655 2.853-19.172 5.494-28.495-27.769-5.296-56.366-7.977-85.246-7.977zM812.143 66.005l-3.79 1.074-3.843-0.869c-20.897-4.729-42.663-7.126-64.694-7.126-103.051 0-190.528 52.304-220.017 124.24l-0.413 1.028c-0.773 1.924-1.495 3.858-2.181 5.801-0.103 0.293-0.208 0.587-0.31 0.88-0.295 0.853-0.581 1.709-0.86 2.566-0.112 0.343-0.22 0.69-0.329 1.034-0.844 2.666-1.605 5.345-2.288 8.037-0.125 0.494-0.25 0.986-0.369 1.479-0.177 0.734-0.348 1.468-0.514 2.204-0.13 0.579-0.252 1.162-0.375 1.743-0.145 0.682-0.292 1.362-0.426 2.045-0.225 1.149-0.433 2.299-0.629 3.454-0.098 0.577-0.183 1.157-0.274 1.735-0.119 0.762-0.236 1.525-0.341 2.291-0.078 0.564-0.155 1.13-0.226 1.695-0.115 0.919-0.222 1.841-0.32 2.765-0.042 0.391-0.091 0.784-0.129 1.175-0.125 1.29-0.23 2.581-0.32 3.878-0.029 0.412-0.050 0.822-0.075 1.233-0.060 0.993-0.11 1.989-0.148 2.988-0.016 0.411-0.032 0.821-0.045 1.232-0.039 1.357-0.067 2.717-0.067 4.081 0 97.92 103.472 177.583 230.655 177.583 2.223 0 4.454-0.031 6.687-0.080 0.61-0.013 1.216-0.036 1.825-0.053 1.641-0.047 3.282-0.102 4.924-0.176 0.706-0.032 1.412-0.067 2.116-0.103 1.527-0.079 3.054-0.171 4.578-0.272 0.774-0.051 1.549-0.101 2.321-0.159 1.395-0.103 2.787-0.225 4.177-0.347 114.661-10.199 203.984-85.408 203.984-176.393 0-41.385-19.017-81.718-53.547-113.574l-6.959-6.419 23.913-85.517c-30.021 8.66-80.044 23.046-121.69 34.849zM268.874 576.297c-38.396 0-69.633-30.258-69.633-67.451s31.237-67.451 69.633-67.451c38.443 0 69.718 30.258 69.718 67.451 0 37.193-31.276 67.451-69.718 67.451zM268.874 472.338c-21.335 0-38.691 16.379-38.691 36.51 0 20.132 17.357 36.511 38.691 36.511 21.382 0 38.777-16.379 38.777-36.511 0-20.131-17.395-36.51-38.777-36.51zM536.004 441.396c38.444 0 69.718 30.258 69.718 67.451s-31.275 67.451-69.718 67.451c-38.419 0-69.676-30.258-69.676-67.451 0-37.193 31.255-67.451 69.676-67.451zM536.004 545.358c21.382 0 38.778-16.379 38.778-36.511 0-20.131-17.396-36.51-38.778-36.51-21.358 0-38.735 16.379-38.735 36.51 0 20.132 17.377 36.511 38.735 36.511zM647.279 323.648c-31.719 0-57.523-25.038-57.523-55.814s25.805-55.813 57.523-55.813c31.721 0 57.525 25.038 57.525 55.813s-25.805 55.814-57.525 55.814zM647.279 242.961c-14.658 0-26.583 11.158-26.583 24.873s11.926 24.874 26.583 24.874c14.659 0 26.586-11.158 26.586-24.874 0.001-13.714-11.926-24.873-26.586-24.873zM839.499 323.648c-31.696 0-57.481-25.038-57.481-55.814s25.786-55.813 57.481-55.813c31.744 0 57.568 25.038 57.568 55.813s-25.824 55.814-57.568 55.814zM839.499 242.961c-14.634 0-26.541 11.158-26.541 24.873s11.906 24.874 26.541 24.874c14.682 0 26.629-11.158 26.629-24.874-0.001-13.714-11.947-24.873-26.629-24.873z"  horiz-adv-x="1024" />

    
    <glyph glyph-name="iconfontconsult" unicode="&#59079;" d="M641.4336 459.9808 237.1584 459.9808c-8.192 0-14.7456-6.5536-14.7456-14.7456 0-8.192 6.5536-14.7456 14.7456-14.7456l404.2752 0c8.192 0 14.7456 6.5536 14.7456 14.7456C656.1792 453.4272 649.6256 459.9808 641.4336 459.9808L641.4336 459.9808zM641.4336 459.9808M582.0416 322.56 296.7552 322.56c-8.192 0-14.7456-6.5536-14.7456-14.7456 0-8.192 6.5536-14.7456 14.7456-14.7456l285.2864 0c8.192 0 14.7456 6.5536 14.7456 14.7456C596.7872 316.0064 590.0288 322.56 582.0416 322.56L582.0416 322.56zM582.0416 322.56M871.0144 762.88l-575.488 0c-37.0688 0-67.1744-29.696-67.1744-66.1504L228.352 660.48c0-12.288 9.8304-22.1184 22.1184-22.1184 12.288 0 22.1184 9.8304 22.1184 22.1184L272.5888 696.7296c0 12.0832 10.24 21.9136 22.9376 21.9136l575.488 0c12.6976 0 22.9376-9.8304 22.9376-21.9136l0-352.8704c0-12.0832-10.24-21.9136-22.9376-21.9136L835.584 321.9456c-12.288 0-22.1184-9.8304-22.1184-22.1184 0-12.0832 9.8304-22.1184 22.1184-22.1184l35.2256 0c37.0688 0 67.1744 29.696 67.1744 66.1504L937.984 696.7296C937.984 733.184 907.8784 762.88 871.0144 762.88L871.0144 762.88zM871.0144 762.88M727.04 619.1104 151.552 619.1104c-37.0688 0-67.1744-29.696-67.1744-66.1504l0-352.8704c0-36.4544 30.1056-66.1504 67.1744-66.1504l188.8256 0 80.4864-121.4464c4.096-6.144 11.0592-9.8304 18.432-9.8304 7.3728 0 14.336 3.6864 18.432 9.8304l80.4864 121.4464L727.04 133.9392c15.7696 0 31.1296 5.7344 43.2128 15.9744 15.1552 12.6976 23.9616 30.9248 23.9616 50.176L794.2144 552.96C794.2144 589.4144 764.1088 619.1104 727.04 619.1104L727.04 619.1104zM750.1824 200.0896c0-8.3968-5.12-13.9264-7.9872-16.384-3.072-2.4576-8.192-5.5296-14.9504-5.5296l-200.704 0c-7.3728 0-14.336-3.6864-18.432-9.8304l-68.8128-103.6288L370.688 168.3456c-4.096 6.144-11.0592 9.8304-18.432 9.8304L151.552 178.176c-12.6976 0-22.9376 9.8304-22.9376 21.9136L128.6144 552.96c0 12.0832 10.24 21.9136 22.9376 21.9136l575.488 0c12.6976 0 22.9376-9.8304 22.9376-21.9136L749.9776 200.0896 750.1824 200.0896zM750.1824 200.0896"  horiz-adv-x="1024" />

    
    <glyph glyph-name="mendoor13" unicode="&#59127;" d="M825.06752 824.1664l-512 0c-11.30496 0-20.48-9.17504-20.48-20.48l0-306.18624 28.17024 0c-8.46848 10.81344-13.06624 24.064-13.06624 38.01088-0.01024 16.51712 6.43072 32.0512 18.11456 43.7248 2.4064 2.4064 5.02784 4.54656 7.75168 6.5024L333.55776 783.2064l471.04 0 0-14.71488-215.04-156.12928 0-668.53888 216.20736 156.9792c2.75456-8.06912 10.31168-13.91616 19.31264-13.91616 11.30496 0 20.48 9.17504 20.48 20.48l0 696.32C845.54752 815.0016 836.38272 824.1664 825.06752 824.1664zM670.79168 262.52288c-9.65632 0-17.70496 11.9296-19.78368 27.89376l-23.06048 0 0 17.92 23.38816 0c2.44736 14.99136 10.17856 26.01984 19.44576 26.01984 11.22304 0 20.31616-16.0768 20.31616-35.92192C691.10784 278.59968 682.01472 262.52288 670.79168 262.52288zM325.81632 292.13696c2.4064-2.39616 5.0176-4.52608 7.7312-6.47168l0-178.29888c0-11.30496-9.17504-20.48-20.48-20.48s-20.48 9.17504-20.48 20.48L292.58752 373.90336l28.17024 0C301.83424 349.66528 303.50336 314.46016 325.81632 292.13696zM472.29952 454.69696c8.15104-8.15104 8.15104-21.32992 0-29.48096l-99.80928-99.81952c-4.06528-4.05504-9.40032-6.10304-14.73536-6.11328-5.33504 0.01024-10.67008 2.048-14.73536 6.11328-8.1408 8.1408-8.13056 21.34016 0 29.47072l64.24576 64.24576-207.9744 0c-11.50976 0-20.8384 9.32864-20.8384 20.8384s9.3184 20.8384 20.84864 20.8384l207.95392 0-64.23552 64.24576c-8.13056 8.13056-8.1408 21.32992 0 29.46048 8.1408 8.1408 21.34016 8.1408 29.48096 0L472.29952 454.69696z"  horiz-adv-x="1024" />

    
    <glyph glyph-name="map" unicode="&#59028;" d="M384.448 193.856c2.048-3.008 4.032-5.504 5.632-7.168 47.424-59.712 95.168-99.456 97.28-101.056l33.344-27.584 33.088 27.776c1.984 1.664 49.6 41.792 97.024 101.44 1.6 1.728 3.776 4.224 5.696 7.296 67.712 91.712 151.744 224.512 170.752 339.584 3.712 26.24 3.84 42.112 3.84 43.904 0.704 85.952-32.256 166.72-92.608 227.2-58.752 58.496-136.128 90.752-218.112 90.752-81.664 0-158.848-32.256-217.28-90.816-60.736-60.8-93.824-142.016-93.248-228.544 0-1.408 0.064-17.344 3.648-42.24 20.352-123.2 115.328-265.472 170.944-340.544zM520.384 687.872c71.36 0 129.344-57.664 129.344-128.704 0-70.912-57.984-128.64-129.344-128.64-71.296 0-129.344 57.664-129.344 128.64 0 71.040 58.048 128.704 129.344 128.704zM1008.768 640.768l-35.328-10.24v-0.128l-101.76-29.888c-1.088-18.112-1.408-32.32-4.8-59.84l106.56 36.032v-564.48l-302.592-88.64v-0.576l-361.216 103.936-258.048-86.080-0 557.184 106.816 26.88c-2.624 15.296-3.648 31.616-3.648 48v1.984l-154.752-38.72v-663.616l51.584 17.344 258.304 86.272 360.96-104.192 353.152 103.488v669.76l-15.232-4.48z"  horiz-adv-x="1024" />

    
    <glyph glyph-name="gouwuche" unicode="&#58944;" d="M246.4-16a2.1 2.1 0 1 0 134.4 0 2.1 2.1 0 1 0-134.4 0ZM716.8-16a2.1 2.1 0 1 0 134.4 0 2.1 2.1 0 1 0-134.4 0ZM905.6 131.2l-537.6 0c-28.8 0-57.6 25.6-64 54.4l-96 566.4c-9.6 54.4-60.8 96-115.2 96l-22.4 0c-12.8 0-25.6-12.8-25.6-25.6 0-12.8 12.8-25.6 25.6-25.6l22.4 0c28.8 0 57.6-25.6 64-54.4l96-566.4c9.6-54.4 60.8-96 115.2-96l537.6 0c12.8 0 25.6 12.8 25.6 25.6C931.2 118.4 921.6 131.2 905.6 131.2zM880 716.8l-572.8 0c-12.8 0-25.6-12.8-25.6-25.6 0-12.8 12.8-25.6 25.6-25.6l572.8 0c25.6 0 38.4-16 32-41.6l-70.4-281.6c-6.4-32-41.6-57.6-73.6-60.8l-396.8-28.8c-12.8 0-25.6-12.8-22.4-28.8 0-12.8 12.8-25.6 28.8-22.4l396.8 28.8c54.4 3.2 105.6 48 118.4 99.2l70.4 281.6C976 665.6 937.6 716.8 880 716.8z"  horiz-adv-x="1024" />

    
    <glyph glyph-name="gouwuchetianjia" unicode="&#58945;" d="M803.2 0m-64 0a2 2 0 1 0 128 0 2 2 0 1 0-128 0ZM345.6 0m-64 0a2 2 0 1 0 128 0 2 2 0 1 0-128 0ZM774.4 777.6c-108.8 0-198.4-89.6-198.4-198.4 0-108.8 89.6-198.4 198.4-198.4 108.8 0 198.4 89.6 198.4 198.4C976 688 886.4 777.6 774.4 777.6zM774.4 432c-83.2 0-150.4 67.2-150.4 147.2 0 83.2 67.2 147.2 150.4 147.2 83.2 0 150.4-67.2 150.4-147.2C924.8 496 857.6 432 774.4 432zM368 246.4c0-12.8 12.8-22.4 25.6-22.4l492.8 41.6c12.8 0 22.4 12.8 22.4 25.6 0 12.8-12.8 22.4-25.6 22.4l-492.8-41.6C377.6 272 364.8 262.4 368 246.4zM844.8 604.8l-48 0 0 48c0 12.8-9.6 25.6-25.6 25.6s-25.6-9.6-25.6-25.6l0-48-48 0c-12.8 0-25.6-9.6-25.6-25.6 0-12.8 9.6-25.6 25.6-25.6l48 0 0-48c0-12.8 9.6-25.6 25.6-25.6s25.6 9.6 25.6 25.6l0 48 48 0c12.8 0 25.6 9.6 25.6 25.6C867.2 592 857.6 604.8 844.8 604.8zM329.6 704l188.8 0c12.8 0 25.6 9.6 25.6 25.6 0 12.8-9.6 25.6-25.6 25.6l-188.8 0c-12.8 0-25.6-9.6-25.6-25.6C304 713.6 316.8 704 329.6 704zM886.4 153.6l-524.8 0c-28.8 0-57.6 25.6-64 51.2l-92.8 547.2c-9.6 51.2-57.6 92.8-112 92.8l-22.4 0c-12.8 0-25.6-9.6-25.6-25.6 0-12.8 9.6-25.6 25.6-25.6l22.4 0c28.8 0 57.6-22.4 64-51.2l92.8-547.2c9.6-51.2 57.6-92.8 112-92.8l524.8 0c12.8 0 25.6 9.6 25.6 25.6C912 140.8 899.2 153.6 886.4 153.6z"  horiz-adv-x="1024" />

    
    <glyph glyph-name="cuowu" unicode="&#58946;" d="M547.2 384l416 416c9.6 9.6 9.6 25.6 0 35.2s-25.6 9.6-35.2 0l-416-416-416 416c-9.6 9.6-25.6 9.6-35.2 0s-9.6-25.6 0-35.2l416-416-416-416c-9.6-9.6-9.6-25.6 0-35.2s25.6-9.6 35.2 0l416 416 416-416c9.6-9.6 25.6-9.6 35.2 0s9.6 25.6 0 35.2L547.2 384z"  horiz-adv-x="1024" />

    
    <glyph glyph-name="erweima" unicode="&#58949;" d="M384 832l-249.6 0c-51.2 0-89.6-41.6-89.6-89.6l0-227.2c0-51.2 41.6-89.6 89.6-89.6l249.6 0c51.2 0 89.6 41.6 89.6 89.6l0 227.2C473.6 790.4 435.2 832 384 832zM428.8 515.2c0-25.6-19.2-44.8-44.8-44.8l-249.6 0c-25.6 0-44.8 19.2-44.8 44.8l0 227.2c0 25.6 19.2 44.8 44.8 44.8l249.6 0c25.6 0 44.8-19.2 44.8-44.8L428.8 515.2zM192 704l134.4 0 0-134.4-134.4 0 0 134.4ZM377.6 352l-243.2 0c-48 0-86.4-38.4-86.4-89.6l0-220.8c0-48 38.4-89.6 86.4-89.6l243.2 0c48 0 86.4 38.4 86.4 89.6l0 220.8C467.2 313.6 425.6 352 377.6 352zM422.4 44.8c0-25.6-19.2-44.8-44.8-44.8l-243.2 0c-25.6 0-44.8 19.2-44.8 44.8l0 220.8c0 25.6 19.2 44.8 44.8 44.8l243.2 0c25.6 0 44.8-19.2 44.8-44.8L422.4 44.8zM192 227.2l131.2 0 0-131.2-131.2 0 0 131.2ZM633.6 425.6l249.6 0c51.2 0 89.6 41.6 89.6 89.6l0 227.2c0 51.2-41.6 89.6-89.6 89.6l-249.6 0c-51.2 0-89.6-41.6-89.6-89.6l0-227.2C544 464 585.6 425.6 633.6 425.6zM588.8 742.4c0 25.6 19.2 44.8 44.8 44.8l249.6 0c25.6 0 44.8-19.2 44.8-44.8l0-227.2c0-25.6-19.2-44.8-44.8-44.8l-249.6 0c-25.6 0-44.8 19.2-44.8 44.8L588.8 742.4zM700.8 704l134.4 0 0-134.4-134.4 0 0 134.4ZM572.8 179.2l137.6 0c12.8 0 22.4 9.6 22.4 22.4l0 137.6c0 12.8-9.6 22.4-22.4 22.4l-137.6 0c-12.8 0-22.4-9.6-22.4-22.4l0-137.6C550.4 188.8 560 179.2 572.8 179.2zM886.4 332.8l0-38.4c0-12.8 12.8-25.6 25.6-25.6l38.4 0c12.8 0 25.6 12.8 25.6 25.6l0 38.4c0 12.8-12.8 25.6-25.6 25.6l-38.4 0C899.2 358.4 886.4 348.8 886.4 332.8zM582.4-48l48 0c12.8 0 22.4 9.6 22.4 22.4l0 48c0 12.8-9.6 22.4-22.4 22.4l-48 0c-12.8 0-22.4-9.6-22.4-22.4l0-48C560-38.4 569.6-48 582.4-48zM944 192l-99.2 0c-16 0-28.8-12.8-28.8-28.8l0-44.8-48 0c-19.2 0-32-12.8-32-32l0-99.2c0-16 12.8-28.8 28.8-28.8l179.2-3.2c16 0 28.8 12.8 28.8 28.8l0 179.2C972.8 179.2 960 192 944 192z"  horiz-adv-x="1024" />

    
    <glyph glyph-name="jushoucang" unicode="&#58952;" d="M908.8 681.6c-9.6 12.8-19.2 22.4-28.8 32-112 115.2-230.4 105.6-342.4 16-9.6-6.4-19.2-16-28.8-25.6-9.6 9.6-19.2 16-28.8 25.6-112 86.4-230.4 99.2-342.4-16-9.6-9.6-19.2-19.2-25.6-32-134.4-195.2-60.8-387.2 137.6-560 44.8-38.4 89.6-73.6 137.6-102.4 16-9.6 32-19.2 44.8-28.8 9.6-6.4 12.8-9.6 19.2-9.6 3.2-3.2 6.4-3.2 12.8-6.4 3.2-3.2 9.6-3.2 16-6.4 25.6-6.4 64-3.2 89.6 12.8 3.2 0 9.6 3.2 16 9.6 12.8 6.4 28.8 16 44.8 28.8 48 28.8 92.8 64 137.6 102.4C969.6 297.6 1043.2 489.6 908.8 681.6zM736 163.2c-41.6-35.2-86.4-70.4-131.2-99.2-16-9.6-28.8-19.2-44.8-25.6-6.4-3.2-12.8-6.4-16-9.6-6.4-3.2-16-6.4-25.6-9.6-3.2 0-6.4 0-9.6 0-6.4 0-12.8 0-16 0-3.2 0-3.2 0-3.2 0 0 0 0 0 0 0 0 0 0 0 0 0 0 0-3.2 0-3.2 3.2-3.2 0-6.4 3.2-9.6 3.2-3.2 3.2-9.6 6.4-16 9.6-12.8 6.4-28.8 16-44.8 25.6-44.8 28.8-89.6 60.8-131.2 99.2-179.2 160-243.2 323.2-131.2 489.6 6.4 9.6 16 16 22.4 25.6 89.6 96 182.4 86.4 275.2 12.8 9.6-6.4 16-12.8 22.4-19.2 0 0 0 0 0 0l28.8-32c3.2-3.2 3.2-3.2 6.4-6.4 0 0 0 0 0 0l0 0c3.2 3.2 9.6 9.6 16 16 12.8 12.8 25.6 25.6 41.6 38.4 92.8 73.6 185.6 83.2 275.2-12.8 6.4-9.6 16-16 22.4-25.6C982.4 489.6 918.4 323.2 736 163.2z"  horiz-adv-x="1024" />

    
    <glyph glyph-name="lajixiang" unicode="&#58953;" d="M944 704l-188.8 0 0 44.8c0 54.4-44.8 99.2-99.2 99.2l-294.4 0c-54.4 0-99.2-44.8-99.2-99.2l0-44.8-179.2 0c-12.8 0-25.6-9.6-25.6-25.6 0-12.8 9.6-25.6 25.6-25.6l60.8 0 0 0 0-633.6c0-54.4 44.8-99.2 99.2-99.2l550.4 0c54.4 0 99.2 44.8 99.2 99.2l0 630.4 0 3.2 51.2 0c12.8 0 25.6 9.6 25.6 25.6C966.4 691.2 960 704 944 704zM316.8 748.8c0 25.6 22.4 48 48 48l294.4 0c25.6 0 48-22.4 48-48l0-44.8-390.4 0L316.8 748.8zM841.6 28.8c0-28.8-16-57.6-41.6-57.6l-550.4 0c-25.6 0-54.4 19.2-54.4 44.8l3.2 636.8 643.2 0 0 0L841.6 28.8zM368 515.2c-16 0-25.6-9.6-25.6-25.6l0-342.4c0-16 12.8-25.6 25.6-25.6 12.8 0 25.6 9.6 25.6 25.6l0 342.4C390.4 502.4 384 515.2 368 515.2zM528 515.2c-16 0-25.6-9.6-25.6-25.6l0-342.4c0-16 12.8-25.6 25.6-25.6 12.8 0 25.6 9.6 25.6 25.6l0 342.4C550.4 502.4 544 515.2 528 515.2zM688 515.2c-16 0-25.6-9.6-25.6-25.6l0-342.4c0-16 12.8-25.6 25.6-25.6 12.8 0 25.6 9.6 25.6 25.6l0 342.4C710.4 502.4 704 515.2 688 515.2z"  horiz-adv-x="1024" />

    
    <glyph glyph-name="lianjie" unicode="&#58954;" d="M588.8 422.4l-9.6 6.4c-9.6 9.6-25.6 6.4-32-3.2-9.6-9.6-6.4-25.6 3.2-32l9.6-6.4c19.2-16 19.2-41.6 3.2-64l-12.8-16c-9.6-9.6-6.4-25.6 3.2-32 9.6-9.6 25.6-6.4 32 3.2l12.8 16C630.4 332.8 627.2 390.4 588.8 422.4zM448 176l-140.8-176c-16-19.2-44.8-22.4-60.8-9.6l-137.6 112c-19.2 16-19.2 41.6-3.2 64l265.6 326.4c16 19.2 44.8 22.4 60.8 9.6l12.8-9.6c9.6-9.6 25.6-6.4 32 3.2 9.6 9.6 6.4 25.6-3.2 32l-12.8 9.6c-38.4 32-96 22.4-128-16l-265.6-326.4c-32-38.4-28.8-96 9.6-128l137.6-112c38.4-32 96-22.4 128 16l140.8 176c9.6 9.6 6.4 25.6-3.2 32C470.4 188.8 457.6 185.6 448 176zM944 620.8l-128 105.6c-41.6 32-99.2 25.6-131.2-12.8l-262.4-326.4c-32-41.6-25.6-99.2 12.8-131.2l128-105.6c41.6-32 99.2-25.6 131.2 12.8l262.4 326.4C992 531.2 985.6 588.8 944 620.8zM921.6 518.4l-262.4-326.4c-16-19.2-44.8-22.4-67.2-6.4l-128 105.6c-19.2 16-22.4 44.8-6.4 67.2l262.4 326.4c16 19.2 44.8 22.4 67.2 6.4l128-105.6C934.4 569.6 937.6 540.8 921.6 518.4z"  horiz-adv-x="1024" />

    
    <glyph glyph-name="naozhong" unicode="&#58955;" d="M931.2 377.6c0 233.6-188.8 419.2-419.2 419.2-233.6 0-419.2-188.8-419.2-419.2 0-137.6 67.2-259.2 169.6-336l-57.6-51.2c-9.6-9.6-12.8-25.6-3.2-35.2 9.6-9.6 25.6-12.8 35.2-3.2l70.4 57.6c60.8-35.2 131.2-54.4 208-54.4 80 0 153.6 22.4 214.4 60.8 0 0 0 0 3.2-3.2l73.6-60.8c9.6-9.6 25.6-6.4 35.2 3.2 9.6 9.6 6.4 25.6-3.2 35.2l-64 54.4C867.2 121.6 931.2 243.2 931.2 377.6zM512 6.4c-204.8 0-371.2 166.4-371.2 371.2s166.4 371.2 371.2 371.2 371.2-166.4 371.2-371.2S716.8 6.4 512 6.4zM208 800c-9.6 9.6-25.6 9.6-35.2 0l-118.4-118.4c-9.6-9.6-9.6-25.6 0-35.2 9.6-9.6 25.6-9.6 35.2 0l118.4 118.4C217.6 774.4 217.6 790.4 208 800zM969.6 684.8l-118.4 115.2c-9.6 9.6-25.6 9.6-35.2 0-9.6-9.6-9.6-25.6 0-35.2l118.4-115.2c9.6-9.6 25.6-9.6 35.2 0C979.2 659.2 979.2 675.2 969.6 684.8zM707.2 595.2l-144-128c0 0 0-3.2-3.2-3.2-12.8 3.2-22.4 6.4-35.2 6.4-12.8 0-22.4-3.2-32-6.4 0 3.2-3.2 3.2-3.2 6.4l-92.8 83.2c-9.6 9.6-25.6 9.6-35.2-3.2-9.6-9.6-9.6-25.6 3.2-35.2l89.6-80c-16-19.2-28.8-41.6-28.8-70.4 0-54.4 44.8-102.4 102.4-102.4 54.4 0 102.4 44.8 102.4 102.4 0 25.6-9.6 48-25.6 67.2l140.8 124.8c9.6 9.6 9.6 25.6 3.2 35.2C732.8 601.6 716.8 601.6 707.2 595.2zM524.8 313.6c-28.8 0-51.2 22.4-51.2 51.2 0 28.8 22.4 51.2 51.2 51.2 28.8 0 51.2-22.4 51.2-51.2C576 339.2 553.6 313.6 524.8 313.6z"  horiz-adv-x="1024" />

    
    <glyph glyph-name="saoyisao" unicode="&#58956;" d="M864 848l-697.6 0c-48 0-83.2-41.6-83.2-89.6l0-208c0-12.8 9.6-25.6 22.4-25.6s22.4 9.6 22.4 25.6l0 208c0 22.4 16 41.6 38.4 41.6l697.6 0c22.4 0 38.4-19.2 38.4-41.6l0-208c0-12.8 9.6-25.6 22.4-25.6s22.4 9.6 22.4 25.6l0 208C947.2 806.4 908.8 848 864 848zM924.8 214.4c-12.8 0-22.4-9.6-22.4-25.6l0-179.2c0-22.4-16-41.6-38.4-41.6l-697.6 0c-22.4 0-38.4 19.2-38.4 41.6L128 192c0 12.8-9.6 25.6-22.4 25.6s-22.4-9.6-22.4-25.6l0-179.2c0-51.2 38.4-89.6 83.2-89.6l697.6 0c48 0 83.2 41.6 83.2 89.6L947.2 192C947.2 204.8 937.6 214.4 924.8 214.4zM921.6 352c12.8 0 22.4 9.6 22.4 22.4 0 12.8-9.6 22.4-22.4 22.4l-819.2 0c-12.8 0-22.4-9.6-22.4-22.4 0-12.8 9.6-22.4 22.4-22.4L921.6 352z"  horiz-adv-x="1024" />

    
    <glyph glyph-name="shangfan" unicode="&#58959;" d="M873.6 476.8l-355.2 361.6c-9.6 9.6-22.4 9.6-32 0l-355.2-368c-9.6-9.6-9.6-22.4 0-32 9.6-9.6 22.4-9.6 32 0l316.8 329.6 0-828.8c0-12.8 9.6-22.4 22.4-22.4s22.4 9.6 22.4 22.4l0 822.4 310.4-316.8c9.6-9.6 22.4-9.6 32 0C883.2 454.4 883.2 470.4 873.6 476.8z"  horiz-adv-x="1024" />

    
    <glyph glyph-name="shezhi" unicode="&#58960;" d="M512 198.4c102.4 0 182.4 83.2 182.4 185.6 0 102.4-83.2 185.6-182.4 185.6-102.4 0-182.4-83.2-182.4-185.6C329.6 281.6 412.8 198.4 512 198.4L512 198.4zM512 249.6c-73.6 0-134.4 60.8-134.4 134.4 0 73.6 60.8 134.4 134.4 134.4 73.6 0 134.4-60.8 134.4-134.4C646.4 310.4 585.6 249.6 512 249.6L512 249.6zM249.015232 52.821408c35.2-28.8 73.6-51.2 112-67.2 41.6 38.4 96 60.8 150.4 60.8 57.6 0 108.8-22.4 150.4-60.8 41.6 16 80 38.4 112 67.2-12.8 54.4-3.2 112 22.4 163.2 28.8 48 73.6 86.4 128 102.4 3.2 22.4 6.4 44.8 6.4 67.2 0 22.4-3.2 44.8-6.4 67.2-54.4 16-99.2 54.4-128 102.4-28.8 48-35.2 108.8-22.4 163.2-35.2 28.8-73.6 51.2-112 67.2-41.6-38.4-92.8-60.8-150.4-60.8-54.4 0-108.8 22.4-150.4 60.8-41.6-16-80-38.4-112-67.2 12.8-54.4 3.2-112-22.4-163.2-28.8-48-73.6-86.4-128-102.4-3.2-22.4-6.4-44.8-6.4-67.2 0-22.4 3.2-44.8 6.4-67.2 54.4-16 99.2-54.4 128-102.4C252.215232 164.821408 261.815232 107.221408 249.015232 52.821408M361.015232-62.378592c-54.4 19.2-105.6 48-150.4 89.6-6.4 6.4-9.6 16-6.4 22.4 16 48 9.6 99.2-16 140.8-25.6 44.8-64 73.6-112 83.2-9.6 3.2-16 9.6-16 19.2-6.4 28.8-9.6 60.8-9.6 89.6 0 28.8 3.2 57.6 9.6 89.6 3.2 9.6 9.6 16 16 19.2 48 12.8 89.6 41.6 112 83.2 25.6 44.8 28.8 92.8 16 140.8-3.2 9.6 0 19.2 6.4 22.4 44.8 38.4 96 67.2 150.4 89.6 9.6 3.2 16 0 22.4-6.4 35.2-35.2 80-57.6 128-57.6 48 0 96 19.2 128 57.6 6.4 6.4 16 9.6 22.4 6.4 54.4-19.2 105.6-48 150.4-89.6 6.4-6.4 9.6-16 6.4-22.4-16-48-9.6-99.2 16-140.8 25.6-44.8 64-73.6 112-83.2 9.6-3.2 16-9.6 16-19.2 6.4-28.8 9.6-60.8 9.6-89.6 0-28.8-3.2-57.6-9.6-89.6-3.2-9.6-9.6-16-16-19.2-48-12.8-89.6-41.6-112-83.2-25.6-44.8-28.8-92.8-16-140.8 3.2-9.6 0-19.2-6.4-22.4-44.8-38.4-96-67.2-150.4-89.6-9.6-3.2-16 0-22.4 6.4-35.2 35.2-80 57.6-128 57.6-48 0-96-19.2-128-57.6-3.2-3.2-9.6-6.4-16-6.4C364.215232-62.378592 361.015232-62.378592 361.015232-62.378592z"  horiz-adv-x="1024" />

    
    <glyph glyph-name="shengyin" unicode="&#58961;" d="M784 524.8c-16 25.6-35.2 44.8-44.8 54.4-9.6 9.6-28.8 9.6-38.4-3.2-9.6-9.6-9.6-28.8 3.2-38.4 3.2-3.2 6.4-6.4 9.6-9.6 9.6-9.6 19.2-22.4 25.6-35.2 57.6-86.4 57.6-179.2-38.4-278.4-9.6-9.6-9.6-28.8 0-38.4 9.6-9.6 28.8-9.6 38.4 0C851.2 297.6 851.2 419.2 784 524.8zM896 649.6c-16 25.6-35.2 48-54.4 70.4-9.6 12.8-19.2 19.2-25.6 25.6-9.6 9.6-28.8 9.6-38.4-3.2-9.6-9.6-9.6-28.8 3.2-38.4 3.2-3.2 12.8-9.6 22.4-22.4 16-19.2 32-38.4 48-64 105.6-160 105.6-336-70.4-518.4-9.6-9.6-9.6-28.8 0-38.4 9.6-9.6 28.8-9.6 38.4 0C1014.4 265.6 1014.4 470.4 896 649.6zM483.2 809.6l-217.6-185.6-108.8 0c-57.6 0-108.8-48-108.8-108.8l0-272c0-60.8 48-108.8 108.8-108.8l96 0 230.4-182.4c54.4-41.6 105.6-16 105.6 51.2l0 755.2C588.8 828.8 534.4 854.4 483.2 809.6zM534.4 6.4c0-22.4-3.2-22.4-19.2-9.6l-236.8 185.6c-3.2 3.2-9.6 6.4-16 6.4l-105.6 0c-28.8 0-54.4 25.6-54.4 54.4l0 272c0 28.8 25.6 54.4 54.4 54.4l118.4 0c6.4 0 12.8 3.2 16 6.4l224 192c16 12.8 16 12.8 16-6.4L531.2 6.4z"  horiz-adv-x="1024" />

    
    <glyph glyph-name="shijian" unicode="&#58963;" d="M512 832c-256 0-460.8-208-460.8-460.8s208-460.8 460.8-460.8 460.8 208 460.8 460.8S768 832 512 832zM512-44.8c-227.2 0-412.8 185.6-412.8 412.8s185.6 412.8 412.8 412.8 412.8-185.6 412.8-412.8S742.4-44.8 512-44.8zM809.6 352l-278.4 0 0 281.6c0 12.8-9.6 22.4-22.4 22.4-12.8 0-22.4-9.6-22.4-22.4l0-307.2c0-12.8 9.6-22.4 22.4-22.4 0 0 3.2 0 3.2 0l297.6 0c12.8 0 22.4 9.6 22.4 22.4C832 342.4 822.4 352 809.6 352z"  horiz-adv-x="1024" />

    
    <glyph glyph-name="shouhuodizhi" unicode="&#58964;" d="M518.4 848c-214.4 0-390.4-176-390.4-393.6 0-48 16-99.2 41.6-156.8 28.8-57.6 70.4-118.4 118.4-182.4 35.2-41.6 73.6-83.2 108.8-121.6 12.8-12.8 25.6-25.6 35.2-35.2 6.4-6.4 12.8-9.6 12.8-12.8l0 0c38.4-38.4 102.4-38.4 137.6 0 3.2 3.2 6.4 6.4 12.8 12.8 9.6 9.6 22.4 22.4 35.2 35.2 38.4 38.4 73.6 80 108.8 121.6 51.2 60.8 92.8 124.8 118.4 182.4 28.8 57.6 41.6 108.8 41.6 156.8C908.8 672 732.8 848 518.4 848zM822.4 320c-25.6-54.4-64-112-115.2-172.8-35.2-41.6-70.4-83.2-105.6-118.4-12.8-12.8-25.6-25.6-35.2-35.2-6.4-6.4-9.6-9.6-12.8-12.8-19.2-19.2-51.2-19.2-70.4 0l0 0c-3.2 3.2-6.4 6.4-12.8 12.8-9.6 9.6-22.4 22.4-35.2 35.2-35.2 38.4-73.6 76.8-105.6 118.4-48 60.8-86.4 118.4-115.2 172.8-25.6 51.2-38.4 96-38.4 134.4 0 192 153.6 345.6 342.4 345.6 188.8 0 342.4-153.6 342.4-345.6C860.8 416 848 371.2 822.4 320zM518.4 633.6c-96 0-169.6-76.8-169.6-172.8 0-96 76.8-172.8 169.6-172.8s169.6 76.8 169.6 172.8C688 556.8 614.4 633.6 518.4 633.6zM518.4 339.2c-67.2 0-121.6 54.4-121.6 124.8s54.4 124.8 121.6 124.8c67.2 0 121.6-54.4 121.6-124.8S585.6 339.2 518.4 339.2z"  horiz-adv-x="1024" />

    
    <glyph glyph-name="shouye" unicode="&#58967;" d="M969.6 393.6l-118.4 112-323.2 300.8c-9.6 9.6-22.4 9.6-32 0l-313.6-297.6c-3.2-3.2-6.4-6.4-9.6-9.6l-118.4-112c-9.6-9.6-9.6-22.4 0-32s22.4-9.6 32 0l83.2 80 0-393.6c0-48 41.6-89.6 92.8-89.6l83.2 0c38.4 0 70.4 28.8 70.4 67.2l0 217.6 99.2 0 99.2 0 0-217.6c0-35.2 32-67.2 70.4-67.2l83.2 0c51.2 0 92.8 38.4 92.8 89.6l0 396.8 80-73.6c9.6-9.6 22.4-9.6 32 0C979.2 371.2 979.2 384 969.6 393.6zM809.6 38.4c0-25.6-19.2-44.8-44.8-44.8l-83.2 0c-12.8 0-22.4 9.6-22.4 22.4L659.2 256c0 12.8-9.6 22.4-22.4 22.4l-121.6 0-121.6 0c-12.8 0-22.4-9.6-22.4-22.4l0-240c0-12.8-9.6-22.4-22.4-22.4l-83.2 0c-25.6 0-44.8 19.2-44.8 44.8l0 438.4 294.4 281.6 294.4-281.6L809.6 38.4z"  horiz-adv-x="1024" />

    
    <glyph glyph-name="shuaxin" unicode="&#58968;" d="M960 265.6c-12.8 3.2-25.6-3.2-32-12.8-76.8-204.8-320-307.2-544-227.2-224 80-342.4 307.2-265.6 512 76.8 204.8 320 307.2 544 227.2 92.8-32 172.8-92.8 224-172.8l-92.8 0c-12.8 0-25.6-9.6-25.6-22.4 0-12.8 9.6-22.4 25.6-22.4l153.6 0c12.8 0 25.6 9.6 25.6 22.4l0 140.8c0 12.8-9.6 22.4-25.6 22.4-12.8 0-25.6-9.6-25.6-22.4l0-89.6c-57.6 86.4-140.8 150.4-246.4 188.8-249.6 86.4-518.4-28.8-608-256-86.4-230.4 44.8-486.4 294.4-572.8 249.6-86.4 518.4 28.8 608 256C979.2 246.4 972.8 259.2 960 265.6z"  horiz-adv-x="1024" />

    
    <glyph glyph-name="sousuo2" unicode="&#58970;" d="M966.4-28.8l-230.4 227.2c60.8 67.2 96 156.8 96 256 0 217.6-176 390.4-390.4 390.4-217.6 0-390.4-176-390.4-390.4 0-217.6 176-390.4 390.4-390.4 99.2 0 188.8 35.2 256 96l230.4-227.2c9.6-9.6 28.8-9.6 38.4 0C979.2-54.4 979.2-38.4 966.4-28.8zM102.4 454.4c0 185.6 150.4 339.2 339.2 339.2s339.2-150.4 339.2-339.2c0-89.6-35.2-172.8-92.8-233.6-3.2 0-3.2-3.2-6.4-3.2-3.2-3.2-3.2-3.2-3.2-6.4-60.8-57.6-144-92.8-233.6-92.8C256 115.2 102.4 268.8 102.4 454.4z"  horiz-adv-x="1024" />

    
    <glyph glyph-name="suo" unicode="&#58971;" d="M860.8 448l-9.6 0c3.2 19.2 6.4 41.6 6.4 64 0 188.8-153.6 336-345.6 336s-345.6-147.2-345.6-336c0-22.4 3.2-41.6 6.4-64l-12.8 0c-54.4 0-96-41.6-96-96l0-320c0-54.4 41.6-96 96-96l700.8 0c54.4 0 96 41.6 96 96l0 320C956.8 406.4 915.2 448 860.8 448zM220.8 451.2c-3.2 19.2-6.4 38.4-6.4 60.8 0 163.2 131.2 288 294.4 288s294.4-128 294.4-288c0-22.4-3.2-44.8-6.4-64l-32 0L224 448 220.8 451.2zM908.8 32c0-25.6-22.4-48-48-48L160-16c-25.6 0-48 22.4-48 48l0 320c0 25.6 22.4 48 48 48l608 0 89.6 0c25.6 0 48-22.4 48-48L905.6 32zM512 304c-12.8 0-25.6-9.6-25.6-25.6l0-195.2c0-12.8 9.6-25.6 25.6-25.6s25.6 9.6 25.6 25.6l0 195.2C537.6 291.2 524.8 304 512 304z"  horiz-adv-x="1024" />

    
    <glyph glyph-name="tishi" unicode="&#58972;" d="M508.8 851.2c-256 0-464-208-464-464s208-464 464-464 464 208 464 464S764.8 851.2 508.8 851.2zM508.8-28.8c-230.4 0-416 185.6-416 416s185.6 416 416 416 416-185.6 416-416S739.2-28.8 508.8-28.8zM521.6 243.2c12.8 0 22.4 9.6 22.4 22.4l0 428.8c0 12.8-9.6 22.4-22.4 22.4-12.8 0-22.4-9.6-22.4-22.4l0-428.8C496 256 508.8 243.2 521.6 243.2zM521.6 147.2m-35.2 0a1.1 1.1 0 1 0 70.4 0 1.1 1.1 0 1 0-70.4 0Z"  horiz-adv-x="1024" />

    
    <glyph glyph-name="wancheng" unicode="&#58973;" d="M486.4 265.6c-19.2-19.2-48-19.2-67.2-3.2l-137.6 131.2-32-35.2 137.6-131.2c38.4-35.2 96-35.2 134.4 3.2l281.6 297.6-35.2 32L486.4 265.6zM512 844.8c-252.8 0-460.8-204.8-460.8-460.8s204.8-460.8 460.8-460.8 460.8 204.8 460.8 460.8S764.8 844.8 512 844.8zM512-28.8c-227.2 0-412.8 185.6-412.8 412.8s185.6 412.8 412.8 412.8 412.8-185.6 412.8-412.8S739.2-28.8 512-28.8z"  horiz-adv-x="1024" />

    
    <glyph glyph-name="wodedingdan" unicode="&#58974;" d="M883.2 835.2l-89.6 0c-12.8 0-25.6-9.6-25.6-25.6s9.6-25.6 25.6-25.6l89.6 0c25.6 0 48-22.4 48-48l0-713.6c0-25.6-22.4-48-48-48l-736 0c-25.6 0-48 22.4-48 48l0 713.6c0 25.6 22.4 48 48 48l99.2 0c12.8 0 25.6 9.6 25.6 25.6s-9.6 25.6-25.6 25.6l-99.2 0c-54.4 0-96-41.6-96-96l0-713.6c0-54.4 41.6-96 96-96l736 0c54.4 0 96 41.6 96 96l0 713.6C979.2 793.6 934.4 835.2 883.2 835.2zM393.6 787.2l240 0c12.8 0 25.6 9.6 25.6 25.6s-9.6 25.6-25.6 25.6l-240 0c-12.8 0-25.6-9.6-25.6-25.6S380.8 787.2 393.6 787.2zM294.4 550.4l464 0c12.8 0 25.6 9.6 25.6 25.6s-9.6 25.6-25.6 25.6l-464 0c-12.8 0-25.6-9.6-25.6-25.6S278.4 550.4 294.4 550.4zM294.4 355.2l464 0c12.8 0 25.6 9.6 25.6 25.6s-9.6 25.6-25.6 25.6l-464 0c-12.8 0-25.6-9.6-25.6-25.6S278.4 355.2 294.4 355.2zM294.4 160l464 0c12.8 0 25.6 9.6 25.6 25.6s-9.6 25.6-25.6 25.6l-464 0c-12.8 0-25.6-9.6-25.6-25.6S278.4 160 294.4 160z"  horiz-adv-x="1024" />

    
    <glyph glyph-name="wodefankui" unicode="&#58975;" d="M883.2 812.8l-742.4 0c-51.2 0-92.8-41.6-92.8-89.6l0-582.4c0-48 41.6-89.6 92.8-89.6l256 0c0 0 6.4-6.4 16-19.2 3.2-3.2 6.4-6.4 9.6-12.8 0 0 6.4-9.6 9.6-12.8 28.8-44.8 51.2-67.2 86.4-67.2 35.2 0 60.8 22.4 89.6 67.2 22.4 35.2 28.8 44.8 28.8 44.8l249.6 0c51.2 0 92.8 41.6 92.8 89.6l0 582.4C976 774.4 934.4 812.8 883.2 812.8zM931.2 140.8c0-25.6-19.2-44.8-44.8-44.8l-252.8 0c-6.4 0-9.6 0-16-3.2-9.6-6.4-19.2-12.8-28.8-28.8-3.2-6.4-22.4-35.2-22.4-35.2-19.2-32-35.2-44.8-48-44.8-12.8 0-25.6 12.8-48 44.8-3.2 3.2-6.4 12.8-9.6 12.8-3.2 6.4-6.4 9.6-9.6 12.8-19.2 25.6-32 38.4-54.4 38.4l-256 0c-25.6 0-44.8 19.2-44.8 44.8l0 582.4c0 25.6 22.4 44.8 48 44.8l742.4 0c25.6 0 48-19.2 48-44.8L934.4 140.8zM220.8 412.8a1.6 1.6 0 1 0 102.4 0 1.6 1.6 0 1 0-102.4 0ZM460.8 412.8a1.6 1.6 0 1 0 102.4 0 1.6 1.6 0 1 0-102.4 0ZM697.6 412.8a1.6 1.6 0 1 0 102.4 0 1.6 1.6 0 1 0-102.4 0Z"  horiz-adv-x="1024" />

    
    <glyph glyph-name="wodehongbao" unicode="&#58977;" d="M865.745455 793.6C865.745455 793.6 865.745455 793.6 865.745455 793.6 865.745455 796.70303 865.745455 796.70303 865.745455 793.6c-18.618182 24.824242-46.545455 40.339394-77.575758 40.339394l-574.060606 0c-55.854545 0-99.29697-43.442424-99.29697-99.29697l0-698.181818c0-55.854545 43.442424-99.29697 99.29697-99.29697l574.060606 0c55.854545 0 99.29697 43.442424 99.29697 99.29697l0 698.181818C887.466667 756.363636 881.260606 778.084848 865.745455 793.6zM788.169697 784.290909c3.10303 0 9.309091 0 12.412121-3.10303l-291.684848-186.181818-313.406061 186.181818c6.206061 3.10303 12.412121 3.10303 18.618182 3.10303L788.169697 784.290909zM837.818182 33.357576c0-27.927273-21.721212-49.648485-49.648485-49.648485l-574.060606 0c-27.927273 0-49.648485 21.721212-49.648485 49.648485l0 698.181818c0 3.10303 0 3.10303 0 6.206061l332.024242-195.490909c9.309091-6.206061 18.618182-3.10303 24.824242 0l316.509091 201.69697c0-3.10303 3.10303-9.309091 3.10303-12.412121L840.921212 33.357576zM639.224242 334.351515c12.412121 0 24.824242 12.412121 24.824242 24.824242 0 12.412121-12.412121 24.824242-24.824242 24.824242l-83.781818 0 71.369697 71.369697c9.309091 9.309091 9.309091 24.824242 0 34.133333-9.309091 9.309091-24.824242 9.309091-34.133333 0l-80.678788-80.678788c0 0-3.10303 0-3.10303 0 0 0 0 0 0 0l-77.575758 77.575758c-9.309091 9.309091-24.824242 9.309091-34.133333 0-9.309091-9.309091-9.309091-24.824242 0-34.133333l68.266667-68.266667-74.472727 0c-12.412121 0-24.824242-12.412121-24.824242-24.824242 0-12.412121 12.412121-24.824242 24.824242-24.824242l93.090909 0 0-74.472727-93.090909 0c-12.412121 0-24.824242-12.412121-24.824242-24.824242 0-12.412121 12.412121-24.824242 24.824242-24.824242l93.090909 0 0-89.987879c0-12.412121 12.412121-24.824242 24.824242-24.824242 12.412121 0 24.824242 12.412121 24.824242 24.824242l0 89.987879 108.606061 0c12.412121 0 24.824242 12.412121 24.824242 24.824242 0 12.412121-12.412121 24.824242-24.824242 24.824242l-108.606061 0 0 74.472727L639.224242 334.351515z"  horiz-adv-x="1024" />

    
    <glyph glyph-name="wodejuhuasuan" unicode="&#58979;" d="M620.8 409.6c54.4 38.4 92.8 102.4 92.8 172.8 0 118.4-96 211.2-211.2 211.2-115.2 0-211.2-96-211.2-211.2 0-73.6 38.4-140.8 96-176-204.8-48-355.2-214.4-339.2-406.4 0 0 0 3.2 0 0l0 0c0 0 0-9.6 3.2-12.8 3.2-6.4 12.8-12.8 19.2-12.8l880 0c9.6 0 19.2 9.6 22.4 22.4l0 0 0 0c0 6.4 0 0 0 0C992 198.4 832 368 620.8 409.6zM336 585.6c0 89.6 73.6 163.2 163.2 163.2 89.6 0 163.2-73.6 163.2-163.2s-73.6-163.2-163.2-163.2C409.6 422.4 336 496 336 585.6zM96 25.6c-9.6 192 179.2 348.8 412.8 348.8l3.2 0c233.6 0 422.4-153.6 416-348.8L96 25.6z"  horiz-adv-x="1024" />

    
    <glyph glyph-name="wodeyouhuiquan" unicode="&#58980;" d="M876.8 729.6l-726.4 0c-57.6 0-102.4-44.8-102.4-102.4l0-118.4 0 0 0-48c0 0 22.4 0 25.6 0 25.6 0 51.2-22.4 51.2-54.4 0-28.8-22.4-54.4-51.2-54.4-6.4 0-25.6 0-25.6 0l0-44.8 0 0 0-6.4 0-118.4c0-57.6 44.8-102.4 102.4-102.4l726.4 0c57.6 0 102.4 44.8 102.4 102.4l0 118.4 0 6.4 0 44.8c0 0-19.2 0-22.4 0-25.6 0-51.2 22.4-51.2 54.4 0 28.8 22.4 54.4 51.2 54.4 6.4 0 25.6 0 22.4 0L979.2 512l0 3.2 0 115.2C976 684.8 931.2 729.6 876.8 729.6zM851.2 409.6c0-48 32-86.4 73.6-99.2l0-121.6c0-28.8-22.4-51.2-51.2-51.2l-726.4 0c-28.8 0-51.2 22.4-51.2 51.2l0 118.4 0 0c51.2 6.4 76.8 54.4 76.8 102.4 0 48-32 92.8-76.8 102.4l0 115.2c0 28.8 22.4 51.2 51.2 51.2l726.4 0c28.8 0 51.2-22.4 51.2-51.2l0-118.4C883.2 499.2 851.2 457.6 851.2 409.6zM614.4 406.4c12.8 0 25.6 12.8 25.6 25.6 0 12.8-12.8 25.6-25.6 25.6l-67.2 0 57.6 57.6c9.6 9.6 9.6 25.6 0 35.2-9.6 9.6-25.6 9.6-35.2 0l-57.6-57.6-57.6 57.6c-9.6 9.6-25.6 9.6-35.2 0-9.6-9.6-9.6-25.6 0-35.2l57.6-57.6-64 0c-12.8 0-25.6-12.8-25.6-25.6 0-12.8 12.8-25.6 25.6-25.6l80 0 0-51.2-80 0c-12.8 0-25.6-12.8-25.6-25.6 0-12.8 12.8-25.6 25.6-25.6l80 0 0-51.2c0-12.8 12.8-25.6 25.6-25.6 12.8 0 25.6 12.8 25.6 25.6l0 51.2 76.8 0c12.8 0 25.6 12.8 25.6 25.6 0 12.8-12.8 25.6-25.6 25.6l-76.8 0 0 51.2L614.4 406.4z"  horiz-adv-x="1024" />

    
    <glyph glyph-name="xiafan" unicode="&#58981;" d="M921.6 332.8c-9.6 9.6-25.6 9.6-35.2 0L544 0l0 822.4c0 12.8-9.6 22.4-25.6 22.4s-25.6-9.6-25.6-22.4L492.8 0l-342.4 339.2c-9.6 9.6-25.6 9.6-35.2 0-9.6-9.6-9.6-22.4 0-32l384-377.6c6.4-6.4 12.8-6.4 19.2-6.4 0 0 0 0 0 0 3.2 0 3.2 0 6.4 0 0 0 0 0 3.2 0 3.2 0 6.4 3.2 9.6 6.4l380.8 371.2C931.2 307.2 931.2 323.2 921.6 332.8z"  horiz-adv-x="1024" />

    
    <glyph glyph-name="xiala" unicode="&#58982;" d="M787.2 515.2c-9.6 9.6-22.4 12.8-35.2 12.8l-480-3.2c-12.8 0-25.6-3.2-35.2-12.8-19.2-19.2-19.2-48 0-67.2l240-240c0 0 0 0 0 0 0 0 0 0 0 0 3.2-3.2 9.6-6.4 12.8-9.6 0 0 3.2-3.2 3.2-3.2 16-6.4 38.4-3.2 51.2 9.6l240 243.2C806.4 467.2 803.2 496 787.2 515.2z"  horiz-adv-x="1024" />

    
    <glyph glyph-name="xiangshangjiantou" unicode="&#58983;" d="M966.4 227.2l-435.2 432c-9.6 9.6-25.6 9.6-35.2 0l-441.6-432c-9.6-9.6-9.6-25.6 0-35.2 9.6-9.6 25.6-9.6 35.2 0l425.6 416 416-416c9.6-9.6 25.6-9.6 35.2 0S976 217.6 966.4 227.2z"  horiz-adv-x="1024" />

    
    <glyph glyph-name="xiangxiajiantou" unicode="&#58984;" d="M966.4 572.8c-9.6 9.6-25.6 9.6-35.2 0l-416-416-425.6 416c-9.6 9.6-25.6 9.6-35.2 0-9.6-9.6-9.6-25.6 0-35.2l441.6-432c9.6-9.6 25.6-9.6 35.2 0l435.2 432C976 550.4 976 563.2 966.4 572.8z"  horiz-adv-x="1024" />

    
    <glyph glyph-name="xiangyoujiantou" unicode="&#58985;" d="M761.6 406.4l-432 435.2c-9.6 9.6-25.6 9.6-35.2 0-9.6-9.6-9.6-25.6 0-35.2l416-416-416-425.6c-9.6-9.6-9.6-25.6 0-35.2s25.6-9.6 35.2 0l432 441.6C771.2 380.8 771.2 396.8 761.6 406.4z"  horiz-adv-x="1024" />

    
    <glyph glyph-name="xiangzuojiantou" unicode="&#58986;" d="M729.6-35.2l-416 425.6 416 416c9.6 9.6 9.6 25.6 0 35.2-9.6 9.6-25.6 9.6-35.2 0l-432-435.2c-9.6-9.6-9.6-25.6 0-35.2l432-441.6c9.6-9.6 25.6-9.6 35.2 0C739.2-60.8 739.2-44.8 729.6-35.2z"  horiz-adv-x="1024" />

    
    <glyph glyph-name="yanjing" unicode="&#58987;" d="M515.2 672c-307.2 0-492.8-313.6-492.8-313.6s214.4-304 492.8-304 492.8 304 492.8 304S822.4 672 515.2 672zM832 243.2c-102.4-86.4-211.2-140.8-320-140.8s-217.6 51.2-320 140.8c-35.2 32-70.4 64-99.2 99.2-6.4 6.4-9.6 12.8-16 19.2 3.2 6.4 9.6 12.8 12.8 19.2 25.6 35.2 57.6 70.4 92.8 102.4 99.2 89.6 208 144 329.6 144s230.4-54.4 329.6-144c35.2-32 64-67.2 92.8-102.4 3.2-6.4 9.6-12.8 12.8-19.2-3.2-6.4-9.6-12.8-16-19.2C902.4 310.4 870.4 275.2 832 243.2zM512 550.4c-96 0-169.6-76.8-169.6-169.6 0-96 76.8-169.6 169.6-169.6 96 0 169.6 76.8 169.6 169.6C681.6 473.6 604.8 550.4 512 550.4zM512 256c-67.2 0-121.6 54.4-121.6 121.6 0 67.2 54.4 121.6 121.6 121.6 67.2 0 121.6-54.4 121.6-121.6C633.6 313.6 579.2 256 512 256z"  horiz-adv-x="1024" />

    
    <glyph glyph-name="yijianfankui" unicode="&#58988;" d="M873.6 620.8c-16 0-25.6-12.8-25.6-25.6l0-550.4c0-28.8-22.4-51.2-51.2-51.2l-643.2 0c-28.8 0-51.2 22.4-51.2 51.2l0 646.4c0 28.8 22.4 51.2 51.2 51.2l521.6 0c16 0 25.6 12.8 25.6 25.6 0 12.8-12.8 25.6-25.6 25.6l-521.6 0c-57.6 0-105.6-48-105.6-102.4l0-646.4c0-57.6 48-102.4 105.6-102.4l643.2 0c57.6 0 105.6 44.8 105.6 102.4l0 550.4C899.2 611.2 889.6 620.8 873.6 620.8zM483.2 534.4l-278.4 0c-16 0-25.6-12.8-25.6-25.6 0-12.8 12.8-25.6 25.6-25.6l278.4 0c16 0 25.6 12.8 25.6 25.6C508.8 524.8 496 534.4 483.2 534.4zM179.2 329.6c0-12.8 12.8-25.6 25.6-25.6l460.8 0c16 0 25.6 12.8 25.6 25.6 0 12.8-12.8 25.6-25.6 25.6l-460.8 0C192 355.2 179.2 342.4 179.2 329.6zM969.6 838.4c-9.6 9.6-25.6 9.6-38.4 0l-326.4-323.2c-9.6-9.6-9.6-25.6 0-35.2s25.6-9.6 38.4 0l326.4 323.2C979.2 812.8 979.2 828.8 969.6 838.4z"  horiz-adv-x="1024" />

    
    <glyph glyph-name="zhaoxiangji" unicode="&#58989;" d="M512 608c-124.8 0-224-99.2-224-224s99.2-224 224-224 224 99.2 224 224S636.8 608 512 608zM512 208c-96 0-176 80-176 176s80 176 176 176 176-80 176-176S608 208 512 208zM768 524.8a1.6 1.6 0 1 0 102.4 0 1.6 1.6 0 1 0-102.4 0ZM864 672l-96 0-22.4 67.2c-6.4 16-25.6 28.8-41.6 28.8l-384 0c-19.2 0-35.2-12.8-41.6-28.8l-22.4-67.2-96 0c-54.4 0-96-41.6-96-96l0-448c0-54.4 44.8-96 96-96l704 0c54.4 0 96 41.6 96 96l0 448C960 630.4 918.4 672 864 672zM912 128c0-25.6-22.4-48-48-48l-704 0c-25.6 0-48 22.4-48 48l0 448c0 25.6 22.4 48 48 48l96 0 35.2 0 9.6 32 22.4 64 377.6 0 22.4-64 9.6-32 35.2 0 96 0c25.6 0 48-22.4 48-48L912 128z"  horiz-adv-x="1024" />

    
    <glyph glyph-name="zhengque" unicode="&#58990;" d="M969.6 688c-9.6 9.6-25.6 9.6-35.2 0l-508.8-537.6c-19.2-19.2-48-19.2-70.4-3.2l-265.6 252.8c-9.6 9.6-25.6 9.6-35.2 0-9.6-9.6-9.6-25.6 0-35.2l265.6-252.8c38.4-38.4 102.4-35.2 137.6 3.2l508.8 537.6C979.2 662.4 979.2 678.4 969.6 688z"  horiz-adv-x="1024" />

    
    <glyph glyph-name="xiaoxizhongxin" unicode="&#58991;" d="M585.6-9.6 585.6-9.6c25.6 32 38.4 44.8 41.6 44.8 208 38.4 345.6 198.4 345.6 396.8 3.2 227.2-204.8 406.4-460.8 406.4s-464-179.2-464-406.4c0-198.4 140.8-358.4 345.6-396.8 3.2 0 16-12.8 41.6-44.8l0 0c32-41.6 51.2-64 73.6-64S550.4-51.2 585.6-9.6M620.8 92.8c-19.2-3.2-32-19.2-67.2-64l0 0c-22.4-25.6-41.6-44.8-41.6-44.8l-9.6 9.6c-6.4 6.4-16 19.2-25.6 32-38.4 48-51.2 64-70.4 67.2-185.6 32-307.2 172.8-307.2 345.6 0 192 185.6 352 416 352s416-160 416-352C928 262.4 806.4 124.8 620.8 92.8zM281.6 425.6a1.4 1.5 0 1 0 89.6 0 1.4 1.5 0 1 0-89.6 0ZM467.2 425.6a1.4 1.5 0 1 0 89.6 0 1.4 1.5 0 1 0-89.6 0ZM652.8 425.6a1.4 1.5 0 1 0 89.6 0 1.4 1.5 0 1 0-89.6 0Z"  horiz-adv-x="1024" />

    
    <glyph glyph-name="lingcunwei" unicode="&#58992;" d="M931.2 428.8c-12.8 0-22.4-9.6-22.4-22.4l0-329.6c0-22.4-19.2-41.6-41.6-41.6l-732.8 0c-22.4 0-41.6 19.2-41.6 41.6l0 563.2c0 22.4 19.2 41.6 41.6 41.6l294.4 0c12.8 0 22.4 9.6 22.4 22.4 0 12.8-9.6 22.4-22.4 22.4l-294.4 0c-48 0-89.6-38.4-89.6-89.6l0-563.2c0-48 38.4-89.6 89.6-89.6l732.8 0c48 0 89.6 38.4 89.6 89.6l0 329.6C956.8 416 947.2 428.8 931.2 428.8zM969.6 630.4l-96 108.8c-9.6 9.6-22.4 9.6-35.2 3.2-9.6-9.6-9.6-22.4-3.2-35.2l48-57.6c-67.2 0-147.2-16-224-51.2-134.4-64-227.2-185.6-259.2-371.2-3.2-12.8 6.4-25.6 19.2-28.8 12.8-3.2 25.6 6.4 28.8 19.2 28.8 169.6 112 278.4 230.4 336 44.8 22.4 96 35.2 147.2 41.6 25.6 3.2 51.2 6.4 73.6 3.2l-83.2-73.6c-9.6-9.6-9.6-22.4-3.2-35.2 9.6-9.6 22.4-9.6 35.2-3.2l115.2 99.2C979.2 604.8 979.2 620.8 969.6 630.4z"  horiz-adv-x="1024" />

    
    <glyph glyph-name="new" unicode="&#58993;" d="M889.6 624l-758.4 0c-41.6 0-73.6-32-73.6-73.6l0-361.6c0-41.6 32-73.6 73.6-73.6l758.4 0c41.6 0 73.6 32 73.6 73.6l0 361.6C963.2 592 931.2 624 889.6 624zM320 249.6l-51.2 0-99.2 195.2 0-195.2-32 0 0 233.6 44.8 0 102.4-201.6 3.2 0 0 201.6 32 0L320 249.6zM400 384l124.8 0 0-32-124.8 0c0-3.2 0-3.2 0-6.4l0 0c0-41.6 12.8-60.8 38.4-60.8l89.6 0 0-32-89.6 0c-19.2 0-35.2 6.4-48 22.4-12.8 16-19.2 41.6-19.2 70.4 0 12.8 0 28.8 0 54.4 0 54.4 35.2 76.8 70.4 83.2l0 0c12.8 0 80 0 86.4 0l0-32c-28.8 0-73.6 0-83.2 0-12.8-3.2-41.6-12.8-41.6-51.2C400 393.6 400 390.4 400 384zM816 249.6l-44.8 0-44.8 185.6-51.2-185.6-48 0-67.2 233.6 35.2 0 57.6-192 3.2 0 51.2 192 38.4 0 51.2-201.6 60.8 201.6 32 0L816 249.6z"  horiz-adv-x="1024" />

    
    <glyph glyph-name="huo" unicode="&#58994;" d="M336-76.8c-60.8 128-28.8 201.6 19.2 268.8 51.2 76.8 64 150.4 64 150.4s41.6-51.2 25.6-134.4c70.4 80 83.2 208 73.6 256 160-112 230.4-358.4 137.6-537.6 492.8 281.6 121.6 700.8 57.6 745.6 22.4-48 25.6-128-19.2-166.4-73.6 281.6-256 336-256 336 22.4-144-76.8-300.8-172.8-419.2-3.2 57.6-6.4 96-38.4 153.6-6.4-105.6-86.4-188.8-108.8-294.4C89.6 137.6 140.8 35.2 336-76.8L336-76.8z"  horiz-adv-x="1024" />

    
    <glyph glyph-name="bangzhukehuleijichuangzaoshouyi" unicode="&#58996;" d="M827.516228 508.338895c-31.559933 31.558911-69.657617 54.199732-111.236853 66.671969 0.367071 2.020425 0.55623 4.068456 0.55623 6.144095l0 38.187662c0 0 0 13.615372 0 20.960884 0 22.756362-22.17866 42.313378-64.139281 56.556554-37.916705 12.869983-88.126712 19.958851-141.379626 19.958851-53.253937 0-103.462921-7.087846-141.379626-19.958851-41.960621-14.243176-64.139281-33.799169-64.139281-56.556554l0-50.522887 0-8.625659c0-2.43862 0.2638-4.838385 0.775041-7.200319-0.610422 2.542913-0.934549 5.131838-0.949886 7.767797l-0.051124 8.625659c-49.423718-1.138023-95.627641-8.388443-131.036197-20.639824-41.518909-14.365874-63.549309-33.842113-63.791637-56.35308l-0.240283 0 0-59.148546c0-22.756362 22.17866-42.313378 64.139281-56.556554 2.260708-0.767884 4.56845-1.513274 6.915047-2.239236-1.587915-4.068456-2.387496-8.245296-2.387496-12.510069l0-59.148546c0-22.756362 22.17866-42.313378 64.139281-56.555531 37.706073-12.799431 87.569459-19.87603 140.493134-19.954761 12.223774-42.999463 35.249049-82.408992 67.729216-114.889159 50.214097-50.214097 116.97809-77.868149 187.992541-77.868149s137.778444 27.654052 187.992541 77.868149 77.868149 116.97809 77.868149 187.992541C905.384377 391.360805 877.730325 458.123775 827.516228 508.338895zM376.509587 677.494247c35.855381 12.170605 83.731061 18.872975 134.807111 18.872975s98.95173-6.70237 134.807111-18.872975c31.002681-10.523386 50.262154-24.773719 50.262154-37.191765s-19.259473-26.668379-50.262154-37.191765c-35.854358-12.170605-83.731061-18.872975-134.807111-18.872975s-98.95173 6.70237-134.807111 18.872975c-31.002681 10.523386-50.262154 24.773719-50.262154 37.191765S345.506907 666.970861 376.509587 677.494247zM696.385963 605.454247l0-24.30031c0-0.335374-0.02045-0.672793-0.049079-1.011235-12.587777 2.72696-25.435265 4.549023-38.467823 5.431425C673.904648 591.418635 686.79917 598.088286 696.385963 605.454247zM326.247433 605.454247c10.59905-8.14407 25.226679-15.440503 43.689639-21.707296 37.916705-12.869983 88.126712-19.958851 141.379626-19.958851 7.391523 0 14.720675 0.141103 21.970073 0.411038-22.039602-9.608265-42.781675-22.248189-61.700661-37.718343-35.852313 2.54598-68.715911 8.533636-95.077545 17.482399-31.002681 10.523386-50.262154 24.773719-50.262154 37.191765L326.246411 605.454247zM131.179316 512.895075c-0.072596 12.417023 19.102011 26.780852 50.04232 37.48624 33.856428 11.714578 78.505155 18.592815 126.475926 19.553948 0.066461-0.192227 0.125765-0.385476 0.195294-0.577702 6.411985-17.72984 27.528286-33.043555 62.044215-44.759155 23.141838-7.854708 50.867463-13.551978 81.06545-16.802449-12.498821-12.56835-23.590708-26.165318-33.19386-40.60072-30.103919-6.45084-65.119842-9.905807-101.785028-9.905807-51.07605 0-98.95173 6.70237-134.807111 18.872975-30.621295 10.393531-49.773407 24.423008-50.239659 36.731648L131.179316 512.895075zM249.881311 286.561499c-31.002681 10.523386-50.262154 24.773719-50.262154 37.190742l0 24.30031c10.59905-8.14407 25.226679-15.440503 43.689639-21.707296 35.374814-12.007008 81.449904-18.979313 130.71207-19.860693 0.669726-13.123558 2.28627-26.071249 4.821003-38.76332C329.968246 268.213057 284.364521 274.856124 249.881311 286.561499zM373.741728 326.944431c-46.940109 0.887514-90.579647 7.469232-123.860417 18.765614-31.002681 10.523386-50.262154 24.773719-50.262154 37.191765 0 2.291382 0.663591 4.652294 1.941694 7.060239 33.402446-7.973316 73.008291-12.269786 114.460739-12.269786 22.311582 0 44.083294 1.248451 64.64541 3.641059C376.541284 363.665854 374.190598 345.466694 373.741728 326.944431zM316.022612 398.140884c-51.07605 0-98.95173 6.70237-134.807111 18.872975-31.002681 10.523386-50.262154 24.773719-50.262154 37.191765l0 24.30031c10.59905-8.14407 25.226679-15.440503 43.689639-21.707296 37.916705-12.869983 88.126712-19.957829 141.379626-19.957829 30.931107 0 60.828484 2.395676 87.893586 6.922204-6.928339-13.188997-12.718655-26.925022-17.312667-41.090489C364.47395 399.700169 340.621487 398.140884 316.022612 398.140884zM639.523687 74.934284c-109.99965 0-203.327728 72.747558-234.401982 172.657354-2.067459 6.647156-3.84351 13.4211-5.346559 20.295248-2.740252 12.533586-4.525506 25.418906-5.262715 38.580296-0.257665 4.595035-0.400813 9.219721-0.400813 13.87815 0 2.196292 0.031697 4.385426 0.089978 6.568425 0.523511 19.832063 3.426338 39.079267 8.406848 57.4819 2.025537 7.483547 4.392583 14.825991 7.091936 22.008928 5.636944 15.003903 12.701273 29.312518 21.030412 42.762247 5.766799 9.312767 12.130728 18.216542 19.052932 26.648952 8.784144 10.701298 18.451712 20.650049 28.894322 29.730713 8.137935 7.076599 16.751325 13.617417 25.773707 19.58769 38.769455 25.657144 85.202413 40.623215 135.071934 40.623215 14.817811 0 29.33399-1.321047 43.435041-3.849645 8.16452-1.464194 16.188959-3.337382 24.053892-5.58991 102.608126-29.389204 177.922115-124.049576 177.922115-235.972515C884.934734 185.025957 774.843061 74.934284 639.523687 74.934284zM686.193861 865.307854C420.375093 961.513197 126.896138 824.014914 30.690795 558.196145-19.797327 418.693797-5.914065 271.576001 57.098441 149.34951c-1.835355-2.351709-3.341472-5.023455-4.41201-7.981495-5.452897-15.065252 2.340462-31.697968 17.405713-37.149843 15.065252-5.452897 31.697968 2.340462 37.149843 17.405713 5.451875 15.065252-2.340462 31.697968-17.405713 37.149843-5.060264 1.831265-10.297417 2.16255-15.227826 1.231068C12.459939 281.290604 3.244308 422.268394 49.920617 551.237132c22.579473 62.388792 56.694589 118.480116 101.39853 166.716733 43.185555 46.5986 94.39146 83.958052 152.194419 111.039514C361.316525 856.074841 422.794286 871.509208 486.239301 874.868062c65.674027 3.476439 130.606754-6.209534 192.995546-28.789007 62.388792-22.579473 118.480116-56.694589 166.716733-101.39853 46.5986-43.185555 83.958052-94.39146 111.040536-152.195442 27.081462-57.803982 42.516852-119.281742 45.874683-182.725736 3.476439-65.674027-6.209534-130.606754-28.789007-192.995546-22.579473-62.388792-56.694589-118.480116-101.39853-166.716733-43.185555-46.5986-94.39146-83.958052-152.194419-111.039514-57.803982-27.081462-119.281742-42.516852-182.725736-45.874683-65.674027-3.476439-130.606754 6.209534-192.995546 28.789007-60.025836 21.724678-114.308389 54.188485-161.341544 96.490616-1.548038 1.392621-3.078694 2.803646-4.608327 4.216716-1.074629 1.154382-2.424305 2.082796-4.009152 2.656409-5.329177 1.928401-11.212539-0.828211-13.14094-6.157387-1.554173-4.29238-0.063394-8.941606 3.358854-11.596992 1.567465-1.447835 3.135953-2.894647 4.72489-4.324077 47.619038-42.829731 104.127535-77.377357 168.057207-100.515105 265.818768-96.205343 559.2967 41.293963 655.502043 307.111709S952.011606 769.103533 686.193861 865.307854zM585.839285 256.437131c0 5.646146-4.578675 10.224821-10.224821 10.224821s-10.224821-4.578675-10.224821-10.224821c0-37.406486 27.855481-68.413257 63.909223-73.412172l0-26.86674c0-5.646146 4.578675-10.224821 10.224821-10.224821s10.224821 4.578675 10.224821 10.224821l0 26.86674c36.053742 4.997893 63.909223 36.004663 63.909223 73.412172s-27.855481 68.413257-63.909223 73.412172L649.748508 436.951238c24.726685-4.789306 43.45958-26.59067 43.45958-52.695661 0-5.647169 4.578675-10.224821 10.224821-10.224821s10.224821 4.577652 10.224821 10.224821c0 37.407509-27.855481 68.414279-63.909223 73.412172l0 25.367782c0 5.647169-4.578675 10.224821-10.224821 10.224821s-10.224821-4.577652-10.224821-10.224821l0-25.367782c-36.053742-4.997893-63.909223-36.004663-63.909223-73.412172 0-37.406486 27.855481-68.413257 63.909223-73.412172l0-107.101935C604.571158 208.530776 585.839285 230.33214 585.839285 256.437131zM649.748508 309.132792c24.726685-4.789306 43.45958-26.59067 43.45958-52.695661s-18.732895-47.906355-43.45958-52.695661L649.748508 309.132792zM585.839285 384.255576c0 26.104991 18.732895 47.906355 43.45958 52.695661l0-105.391323C604.571158 336.349221 585.839285 358.150585 585.839285 384.255576z"  horiz-adv-x="1024" />

    
    <glyph glyph-name="louti" unicode="&#58931;" d="M512 864c264.672 0 480-215.328 480-480s-215.328-480-480-480S32 119.328 32 384 247.328 864 512 864M512 896C229.216 896 0 666.784 0 384s229.216-512 512-512 512 229.216 512 512S794.784 896 512 896L512 896zM192 160l192 0 0-64-192 0 0 64ZM288 288l192 0 0-64-192 0 0 64ZM416 416l192 0 0-64-192 0 0 64ZM544 544l192 0 0-64-192 0 0 64ZM640 672l192 0 0-64-192 0 0 64Z"  horiz-adv-x="1024" />

    
    <glyph glyph-name="dizhi1" unicode="&#59095;" d="M511.573711-127.604426C442.523096-127.604426 375.52411-114.068303 312.44063-87.373084 251.516258-61.591161 196.809353-24.693148 149.835507 22.301494 102.860301 69.297494 65.978615 124.028616 40.20946 184.974513 13.530133 248.084557 0 315.113202 0 384.199829 0 453.28101 13.530133 520.309655 40.20946 583.419699 65.978615 644.372401 102.860301 699.102163 149.835507 746.098164 196.809353 793.092804 251.516258 829.992178 312.44063 855.772741 375.52411 882.462517 442.523096 896 511.577793 896 580.628408 896 647.627394 882.462517 710.710872 855.772741 771.629803 829.992178 826.336707 793.092804 873.310555 746.098164 920.291202 699.102163 957.17289 644.372401 982.942045 583.419699 1009.621371 520.309655 1023.151504 453.28101 1023.151504 384.199829 1023.151504 315.118648 1009.621371 248.090003 982.942045 184.974513 957.17289 124.028616 920.291202 69.297494 873.310555 22.301494 826.336707-24.693148 771.629803-61.591161 710.710872-87.373084 647.627394-114.068303 580.628408-127.604426 511.573711-127.604426ZM511.465779 851.55713C253.948372 851.55713 44.44287 641.957525 44.44287 384.327482 44.44287 126.691996 253.948372-82.906249 511.465779-82.906249 768.987266-82.906249 978.49277 126.691996 978.49277 384.327482 978.49277 641.957525 768.987266 851.55713 511.465779 851.55713ZM689.43428 331.971614 514.172207 70.374316C510.732819 65.219126 504.960265 62.134784 498.767488 62.134784 492.609208 62.134784 486.824108 65.222258 483.366691 70.358651L308.186152 331.280026C286.841104 365.390278 275.727192 404.022088 275.727192 443.470804 275.727192 562.456846 375.704583 659.273693 498.608337 659.273693 621.490141 659.273693 721.486348 562.463113 721.486348 443.470804 721.486348 404.080047 710.403793 365.524992 689.443689 331.971614L689.43428 331.971614ZM498.608337 621.942037C396.192724 621.942037 312.878362 541.879166 312.878362 443.467671 312.878362 411.040573 322.037774 379.298795 339.325647 351.63762L498.764353 114.179333 658.323009 352.292399C675.243187 379.384166 684.341448 411.095398 684.341448 443.459056 684.341448 541.866633 601.017679 621.936554 498.617744 621.936554L498.608337 621.942037ZM498.608337 341.645231C440.375543 341.645231 393.008135 387.690273 393.008135 444.297107 393.008135 500.872613 440.375543 546.92392 498.608337 546.92392 556.841132 546.92392 604.203052 500.888278 604.203052 444.297107 604.203052 387.705935 556.844267 341.645231 498.608337 341.645231L498.608337 341.645231ZM498.608337 509.595394C460.844867 509.595394 430.14676 480.288666 430.14676 444.281442 430.14676 408.27187 460.848005 378.968273 498.608337 378.968273 536.362398 378.968273 567.06129 408.27187 567.06129 444.281442 567.06129 480.285533 536.359263 509.595394 498.608337 509.595394L498.608337 509.595394Z"  horiz-adv-x="1024" />

    
    </font>
</defs>
</svg>
